Дело № … (Фаина Епифанова) [1964 г., мультфильм, сатира, DVB]

Ответить на тему
 
Автор Сообщение

user ®

Стаж: 7 лет 7 месяцев

Сообщений: 20008

Пост Пост: #1 от 12-Янв-2014 17:35

[Цитировать]

Дело № …
Жанр: мультфильм, сатира
Год выпуска: 1964
Продолжительность: 00:16:53
Режиссёр: Фаина Епифанова
Описание: В то время как другие муравьи неутомимо трудятся над построением развитого насекомого общества, один из них, нерадивый мерзавец, прекрасно проводит время в компании дружка-трутня и двух бабочек легкого поведения. Они попадают под влияние хитрого коварного жука кавказской национальности и его подельника-паука, которые все-таки заставляют их "работать". Но это уже совсем другая работа, и тунеядцев ожидает неминуемая, но справедливая расплата ...

Трансляция спутникового канала:

Качество видео: DVB
Формат видео: MPEG-PS
Видео: MPEG2 Video, 544x576@768x576 (4:3), анаморф, 25 fps, 2200 kbps
Аудио: MPEG Audio, 2 сh, 48 kHz, 192 kbps

MediaInfo

D:\Дело № (1964)_DVB by RG multfilms.mpg
General
Complete name : D:\Дело № (1964)_DVB by RG multfilms.mpg
Format : MPEG-PS
File size : 290 MiB
Duration : 16mn 53s
Overall bit rate mode : Variable
Overall bit rate : 2 400 Kbps
Video #224
ID : 224 (0xE0)
Format : MPEG Video
Format version : Version 2
Format profile : Main@Main
Format settings, BVOP : Yes
Format settings, Matrix : Custom
Format settings, GOP : M=3, N=21
Duration : 16mn 53s
Bit rate mode : Variable
Bit rate : 2 160 Kbps
Maximum bit rate : 15.0 Mbps
Width : 544 pixels
Height : 576 pixels
Display aspect ratio : 4:3
Frame rate : 25.000 fps
Color space : YUV
Chroma subsampling : 4:2:0
Bit depth : 8 bits
Scan type : Interlaced
Scan order : Top Field First
Compression mode : Lossy
Bits/(Pixel*Frame) : 0.276
Stream size : 261 MiB (90%)
Audio #192
ID : 192 (0xC0)
Format : MPEG Audio
Format version : Version 1
Format profile : Layer 2
Duration : 16mn 53s
Bit rate mode : Constant
Bit rate : 192 Kbps
Channel(s) : 2 channels
Sampling rate : 48.0 KHz
Compression mode : Lossy
Stream size : 23.2 MiB (8%)

Скриншоты


Скачать

Скачать торрент!

Как скачивать? · Что такое торрент? · Рейтинг и ограничения

Сайт не распространяет и не хранит электронные версии произведений, а лишь предоставляет доступ к создаваемому пользователями каталогу ссылок на торрент-файлы, которые содержат только списки хеш-сумм

[Профиль] [ЛС]
Показать сообщения:    
Ответить на тему

Текущее время: Сегодня 23:42

Часовой пояс: GMT + 4



Вы не можете начинать темы
Вы не можете отвечать на сообщения
Вы не можете редактировать свои сообщения
Вы не можете удалять свои сообщения
Вы не можете голосовать в опросах
Вы не можете прикреплять файлы к сообщениям
Вы не можете скачивать файлы