Монтаж / Mong-ta-joo / Montage (Чон Гын Соп / Jung Geun Sub) [2013, Южная Корея, детектив, драма, триллер, DVDRip] MVO STEPonee

Ответить на тему
 
Автор Сообщение

user ®

Стаж: 11 лет

Сообщений: 15151

Пост Пост: #1 от 12-Янв-2014 17:35

[Цитировать]

Монтаж / Montage / 몽타주 / Mong-ta-joo
Год выпуска: 2013
Страна: Южная Корея
Жанр: детектив, триллер, драма
Продолжительность: 02:00:08
Перевод: любительский (многоголосый закадровый) [студия STEPonee]
Русские субтитры: нет
Вшитые субтитры: нет
Режиссёр: Чон Гын Соп (Jung Geun Sub)
В ролях:
  • Ум Чон Хва (Uhm Jung Hwa) - Ха Гён, мать Су Чжин
  • Ким Сан Гён (Kim Sang Kyung) - детектив Чхон Хо
  • Сон Ён Чхан (Song Young Chang) - дедушка Хан Чхоль
  • Чо Хи Бон (Jo Hee Bong) - детектив Кан
  • Ю Сын Мок (Yoo Seung Mok) - капитан Квак
  • Ли Юн Хёк (Lee Joon Hyuk) - капитан Син
  • Пак Чхоль Мин (Park Chul Min) - начальнк отдела Ку
Описание
Около 15 лет назад Ха Гён потеряла дочь. Преступник забрал выкуп, но девочка всё равно погибла. Найти его не удалось, несмотря на все усилия детектива Чхон Хо. И вот к моменту истечения срока давности этого преступления Чхон Хо, приехавший на место трагедии, обнаруживает там белый цветок. Кто положил его? Ведь об этом месте знали только полиция, Ха Гён и сам похититель. А тут приходит новое известие: точно по сценарию того давнего преступления похищена ещё одна девочка. И по телефону с матерью новой жертвы говорит всё тот же изменённый голос и опять требует выкуп. Полиция обращается за помощью к Чхон Хо, который хоть и уволился, но лучше кого бы то ни было знал детали предыдущего дела. Поиски похитителя возобновляются и приводят к неожиданному результату. ((с) Юрий Балякин)
Сэмпл

Роли озвучивали:
  • Наталья Скребнева
  • Виталий Великий
  • Юрий Балякин
  • Ирина Пометнёва
  • Натиа Макаридзе
Перевод на русский язык: Ольга Белкова
Редакция: Ольга Белкова и Юрий Балякин

Скриншот c названием фильма

Качество: DVDRip
Формат: AVI
Видео: XviD, 720x384 (1,85:1), 29,970 к/с, 1988 кбит/с
Аудио: AC3 5.1, 48 кГц, 448 кбит/с

Отчёт MediaInfo

General
Complete name : E:\STEPonee\_Work\Монтаж. Montage\final\Montage.2013.DVDRip.AC3.MVO.STEPonee.avi
Format : AVI
Format/Info : Audio Video Interleave
Format profile : OpenDML
File size : 2.06 GiB
Duration : 2h 0mn
Overall bit rate : 2 451 Kbps
Writing application : VirtualDubMod 1.5.10.2 (build 2542/release)
Writing library : VirtualDubMod build 2542/release
Video
ID : 0
Format : MPEG-4 Visual
Format profile : Advanced Simple@L5
Format settings, BVOP : 2
Format settings, QPel : No
Format settings, GMC : No warppoints
Format settings, Matrix : Default (H.263)
Codec ID : XVID
Codec ID/Hint : XviD
Duration : 2h 0mn
Bit rate : 1 988 Kbps
Width : 720 pixels
Height : 384 pixels
Display aspect ratio : 1.85:1
Frame rate : 29.970 fps
Color space : YUV
Chroma subsampling : 4:2:0
Bit depth : 8 bits
Scan type : Progressive
Compression mode : Lossy
Bits/(Pixel*Frame) : 0.240
Stream size : 1.67 GiB (81%)
Writing library : XviD 1.2.1 (UTC 2008-12-04)
Audio
ID : 1
Format : AC-3
Format/Info : Audio Coding 3
Mode extension : CM (complete main)
Format settings, Endianness : Big
Codec ID : 2000
Duration : 2h 0mn
Bit rate mode : Constant
Bit rate : 448 Kbps
Channel(s) : 6 channels
Channel positions : Front: L C R, Side: L R, LFE
Sampling rate : 48.0 KHz
Bit depth : 16 bits
Compression mode : Lossy
Stream size : 385 MiB (18%)
Alignment : Split accross interleaves
Interleave, duration : 33 ms (1.00 video frame)
Interleave, preload duration : 500 ms

Скриншоты

Подготовка релиза:
  • Юрий Балякин - обработка звука, монтаж
  • Екатерина Проц - постер

Все раздачи студии

[url=http://***/forum/tracker.php?nm=steponee]Все разделы[/url]
[url=http://***/forum/tracker.php?f=915&nm=steponee]Корейские сериалы[/url]
[url=http://***/forum/tracker.php?f=1939&nm=steponee]Японские сериалы[/url]
[url=http://***/forum/tracker.php?f=2412&nm=steponee]Прочие азиатские сериалы[/url]
[url=http://***/forum/tracker.php?f=934&nm=steponee]Азиатские фильмы[/url]
Скачать

Скачать торрент! Монтаж / Mong-ta-joo / Montage (Чон Гын Соп / Jung Geun Sub) [2013, Южная Корея, детектив, драма, триллер, DVDRip] MVO STEPonee

Как скачивать? · Что такое торрент? · Рейтинг и ограничения

Сайт не распространяет и не хранит электронные версии произведений, а лишь предоставляет доступ к создаваемому пользователями каталогу ссылок на торрент-файлы, которые содержат только списки хеш-сумм

[Профиль] [ЛС]
Показать сообщения:    
Ответить на тему

Текущее время: Сегодня 14:44

Часовой пояс: GMT + 4



Вы не можете начинать темы
Вы не можете отвечать на сообщения
Вы не можете редактировать свои сообщения
Вы не можете удалять свои сообщения
Вы не можете голосовать в опросах
Вы не можете прикреплять файлы к сообщениям
Вы не можете скачивать файлы