ВАЛЛ И / WALL E (Эндрю Стэнтон / Andrew Stanton) [2008, Фантастика, мультфильм, комедия, семейный, HDRip] Dub + Rus Sub

Ответить на тему
 
Автор Сообщение

user ®

Стаж: 13 лет

Сообщений: 15041

Пост Пост: #1 от 12-Янв-2014 00:20

[Цитировать]

ВАЛЛ И / WALL E
Страна: США
Жанр: Фантастика, мультфильм, комедия, семейный
Продолжительность: 1:38:42
Год выпуска: 2008
Перевод: Профессиональный (дублированный)
Русские субтитры: есть
Режиссёр: Эндрю Стэнтон / Andrew Stanton
Роли озвучивали: Бен Бертт, Элисса Найт, Джефф Гарлин, Сигурни Уивер, Фред Уиллард.....
Описание: Робот ВАЛЛ-И из года в год прилежно трудится на опустевшей Земле, очищая нашу планету от гор мусора, которые оставили после себя улетевшие в космос люди. Он и не представляет, что совсем скоро произойдут невероятные события, благодаря которым он встретит друзей, поднимется к звездам и даже сумеет изменить к лучшему своих бывших хозяев, совсем позабывших родную Землю.
Семпл: Скачать
Качество: HDRip
Формат: AVI
Видео: XviD build 50 720x304 (2.37:1), 23.976 fps, ~1713 kbps avg, 0.33 bit/pixel
Аудио: 48 kHz, AC3 Dolby Digital, 3/2 (L,C,R,l,r) + LFE ch, ~384.00 kbps avg
Субтитры: Русские внешние

MI

ОбщееПолное имя : D:\Valli.2008.RUS.BDRip.XviD.AC3.-HQCLUB\Valli.2008.RUS.BDRip.XviD.AC3.-HQCLUB.aviФормат : AVIФормат/Информация : Audio Video InterleaveРазмер файла : 1,45 ГбайтПродолжительность : 1 ч. 38 м.Общий поток : 2107 Кбит/секНазвание фильма : ВАЛЛ·И / WALL·E (2008) BDRipРежиссёр : HITMANПрограмма кодирования : VirtualDubMod 1.5.10.2 (build 2542/release)Примечание : 03.11.2009
ВидеоИдентификатор : 0Формат : MPEG-4 VisualПрофиль формата : Advanced Simple@L5Параметр BVOP формата : 2Параметр QPel формата : НетПараметр GMC формата : Без точки переходаПараметр матрицы формата : Default (MPEG)Идентификатор кодека : XVIDИдентификатор кодека/Подсказка : XviDПродолжительность : 1 ч. 38 м.Битрейт : 1714 Кбит/секШирина : 720 пикселейВысота : 304 пикселяСоотношение сторон : 2,35:1Частота кадров : 23,976 кадра/секЦветовое пространство : YUVСубдискретизация насыщенности : 4:2:0Битовая глубина : 8 битТип развёртки : ПрогрессивнаяМетод сжатия : С потерямиБит/(Пиксели*Кадры) : 0.327Размер потока : 1,18 Гбайт (81%)Библиотека кодирования : XviD 1.2.1 (UTC 2008-12-04)
АудиоИдентификатор : 1Формат : AC-3Формат/Информация : Audio Coding 3Расширение режима : CM (complete main)Параметр Endianness формата : BigИдентификатор кодека : 2000Продолжительность : 1 ч. 38 м.Вид битрейта : ПостоянныйБитрейт : 384 Кбит/секКаналы : 6 каналовРасположение каналов : Front: L C R, Side: L R, LFEЧастота : 48,0 КГцБитовая глубина : 16 битМетод сжатия : С потерямиРазмер потока : 271 Мбайт (18%)Выравнивание : Разделение по промежуткамПродолжительность промежутка : 42 мс. (1,00 видеокадр)Время предзагрузки промежутка : 500 мс.

Скриншоты

Скачать

Скачать торрент! ВАЛЛ И / WALL E (Эндрю Стэнтон / Andrew Stanton) [2008, Фантастика, мультфильм, комедия, семейный, HDRip] Dub + Rus Sub

Как скачивать? · Что такое торрент? · Рейтинг и ограничения

Сайт не распространяет и не хранит электронные версии произведений, а лишь предоставляет доступ к создаваемому пользователями каталогу ссылок на торрент-файлы, которые содержат только списки хеш-сумм

[Профиль] [ЛС]
Показать сообщения:    
Ответить на тему

Текущее время: Сегодня 20:18

Часовой пояс: GMT + 4



Вы не можете начинать темы
Вы не можете отвечать на сообщения
Вы не можете редактировать свои сообщения
Вы не можете удалять свои сообщения
Вы не можете голосовать в опросах
Вы не можете прикреплять файлы к сообщениям
Вы не можете скачивать файлы