Начало / Inception (Кристофер Нолан / Christopher Nolan) [2010, США, Великобритания, фантастика, боевик, триллер, драма, BDRip 720p] Dub + 2x DVO + 2x AVO + Original eng + Sub rus, eng

Ответить на тему
 
Автор Сообщение

user ®

Стаж: 7 лет 7 месяцев

Сообщений: 20008

Пост Пост: #1 от 12-Янв-2014 00:20

[Цитировать]

Начало / Inception
Страна: США, Великобритания
Жанр: фантастика, боевик, триллер, драма
Год выпуска: 2010
Продолжительность: 02:28:08
Перевод#1: Профессиональный (дублированный) (двухголосый закадровый) | BD CEE
Перевод#2: Профессиональный (двухголосый закадровый) | Кубик в Кубе (отдельно)
Перевод#3: Профессиональный (двухголосый закадровый) | BBC SPb (отдельно)
Перевод#4: Авторский (одноголосый закадровый), Ю. Сербин (отдельно)
Перевод#5: Авторский (одноголосый закадровый), А. Гаврилов (отдельно)
Cубтитры: русские (BD, voronine), английские
Оригинальная аудиодорожка: английский
Режиссер: Кристофер Нолан / Christopher Nolan
В ролях: Леонардо ДиКаприо, Эллен Пейдж, Том Харди, Джозеф Гордон-Левитт, Марион Котийяр, Кен Ватанабе, Киллиан Мёрфи, Дилип Рао, Том Беренджер, Майкл Кейн
Описание: Кобб — талантливый вор, лучший из лучших в опасном искусстве извлечения: он крадет ценные секреты из глубин подсознания во время сна, когда человеческий разум наиболее уязвим. Редкие способности Кобба сделали его ценным игроком в привычном к предательству мире промышленного шпионажа, но они же превратили его в извечного беглеца и лишили всего, что он когда-либо любил...

Доп. информация: за Гаврилова благодарим пользователей Пиратки, остальное с HDCLUB, всем спасибо
Тип релиза: BDRip 720p (от CtrlHD) | sample
Контейнер: MKV
Видео кодек: x264
Видео: AVC 1280x534 (2.40:1), 23.976 fps, ~3600 Kbps, 0.22 bit/pixel
Аудио #1: Russian AC3 6ch 48kHz 640Kbps | Dub BD CEE
Аудио #2: English AC3 6ch 48kHz 640Kbps | Original
Аудио #3: Russian AC3 6ch 48kHz 640Kbps | DVO Кубик в Кубе (отдельным файлом)
Аудио #4: Russian AC3 6ch 48kHz 640Kbps | DVO BBC SPb (отдельным файлом)
Аудио #5: Russian AC3 6ch 48kHz 640Kbps | AVO Сербин (отдельным файлом)
Аудио #6: Russian AC3 6ch 48kHz 640Kbps | AVO Гаврилов (отдельным файлом)
Формат субтитров: softsub (SRT)
Главы: есть, подписаны

MediaInfo

General
Complete name : D:\...\Inception.2010.720p.BluRay.x264.DD5.1.Rus.Eng-CtrlHD.mkv
Format : Matroska
Format version : Version 2
File size : 5.24 GiB
Duration : 2h 28mn
Overall bit rate : 5 061 Kbps
Movie name : Inception.2010.720p.BluRay.x264.DD5.1.Rus.Eng-CtrlHD
Encoded date : UTC 2014-01-10 17:44:07
Writing application : mkvmerge v6.5.0 ('Isn't she lovely') built on Oct 20 2013 12:50:05
Writing library : libebml v1.3.0 + libmatroska v1.4.1
Video
ID : 1
Format : AVC
Format/Info : Advanced Video Codec
Format profile : High@L4.1
Format settings, CABAC : Yes
Format settings, ReFrames : 11 frames
Codec ID : V_MPEG4/ISO/AVC
Duration : 2h 28mn
Bit rate : 3 680 Kbps
Width : 1 280 pixels
Height : 534 pixels
Display aspect ratio : 2.40:1
Frame rate mode : Constant
Frame rate : 23.976 fps
Color space : YUV
Chroma subsampling : 4:2:0
Bit depth : 8 bits
Scan type : Progressive
Bits/(Pixel*Frame) : 0.225
Stream size : 3.81 GiB (73%)
Title : Inception (2010)
Writing library : x264 core 108 r1788kMod c764e29
Encoding settings : cabac=1 / ref=11 / deblock=1:-3:-3 / analyse=0x3:0x113 / me=umh / subme=10 / psy=1 / psy_rd=1.00:0.05 / mixed_ref=1 / me_range=48 / chroma_me=1 / trellis=2 / 8x8dct=1 / cqm=0 / deadzone=21,11 / fast_pskip=0 / chroma_qp_offset=-3 / threads=6 / sliced_threads=0 / nr=0 / decimate=0 / interlaced=0 / constrained_intra=0 / bframes=9 / b_pyramid=2 / b_adapt=2 / b_bias=0 / direct=3 / weightb=1 / open_gop=0 / weightp=2 / keyint=250 / keyint_min=25 / scenecut=40 / intra_refresh=0 / rc=crf / mbtree=0 / crf=17.1000 / qcomp=0.60 / qpmin=10 / qpmax=51 / qpstep=4 / ip_ratio=1.40 / pb_ratio=1.30 / aq=1:0.80
Language : English
Default : Yes
Forced : No
Audio #1
ID : 2
Format : AC-3
Format/Info : Audio Coding 3
Mode extension : CM (complete main)
Format settings, Endianness : Big
Codec ID : A_AC3
Duration : 2h 28mn
Bit rate mode : Constant
Bit rate : 640 Kbps
Channel(s) : 6 channels
Channel positions : Front: L C R, Side: L R, LFE
Sampling rate : 48.0 KHz
Bit depth : 16 bits
Compression mode : Lossy
Stream size : 678 MiB (13%)
Title : Dub BD CEE
Language : Russian
Default : Yes
Forced : No
Audio #2
ID : 3
Format : AC-3
Format/Info : Audio Coding 3
Mode extension : CM (complete main)
Format settings, Endianness : Big
Codec ID : A_AC3
Duration : 2h 28mn
Bit rate mode : Constant
Bit rate : 640 Kbps
Channel(s) : 6 channels
Channel positions : Front: L C R, Side: L R, LFE
Sampling rate : 48.0 KHz
Bit depth : 16 bits
Compression mode : Lossy
Stream size : 678 MiB (13%)
Title : Original
Language : English
Default : No
Forced : No
Text #1
ID : 4
Format : UTF-8
Codec ID : S_TEXT/UTF8
Codec ID/Info : UTF-8 Plain Text
Title : Forced voronine
Language : Russian
Default : Yes
Forced : No
Text #2
ID : 5
Format : UTF-8
Codec ID : S_TEXT/UTF8
Codec ID/Info : UTF-8 Plain Text
Title : voronine
Language : Russian
Default : No
Forced : No
Text #3
ID : 6
Format : UTF-8
Codec ID : S_TEXT/UTF8
Codec ID/Info : UTF-8 Plain Text
Title : SDH voronine
Language : Russian
Default : No
Forced : No
Text #4
ID : 7
Format : UTF-8
Codec ID : S_TEXT/UTF8
Codec ID/Info : UTF-8 Plain Text
Title : Forced BD
Language : Russian
Default : No
Forced : No
Text #5
ID : 8
Format : UTF-8
Codec ID : S_TEXT/UTF8
Codec ID/Info : UTF-8 Plain Text
Title : BD
Language : Russian
Default : No
Forced : No
Text #6
ID : 9
Format : UTF-8
Codec ID : S_TEXT/UTF8
Codec ID/Info : UTF-8 Plain Text
Language : English
Default : No
Forced : No
Text #7
ID : 10
Format : UTF-8
Codec ID : S_TEXT/UTF8
Codec ID/Info : UTF-8 Plain Text
Title : SDH
Language : English
Default : No
Forced : No
Menu
00:00:00.000 : en:Washed Ashore
00:11:41.742 : en:Dream On A Train
00:21:37.337 : en:A Paris Architect
00:31:20.336 : en:Bilding Within A Dream
00:41:22.229 : en:Seeking A Chemist
00:51:13.737 : en:The Plan
01:01:21.552 : en:Boarding The Plane
01:10:29.683 : en:Kidnapping
01:22:15.597 : en:The Safe's Combination
01:31:52.590 : en:A Deeper Dream
01:40:38.532 : en:The Ski Dream
01:51:22.175 : en:Mal's Here
02:00:54.413 : en:Our Children
02:10:09.051 : en:The Kick
02:20:55.446 : en:End Credits

Скриншоты и сравнения

source vs CtrlHD vs [url=http://***/forum/viewtopic.php?t=4637939]HiDt[/url]



* бюджетка, рип годный, сравнения прилагаются
Скачать

Скачать торрент!

Как скачивать? · Что такое торрент? · Рейтинг и ограничения

Сайт не распространяет и не хранит электронные версии произведений, а лишь предоставляет доступ к создаваемому пользователями каталогу ссылок на торрент-файлы, которые содержат только списки хеш-сумм

[Профиль] [ЛС]
Показать сообщения:    
Ответить на тему

Текущее время: Сегодня 04:09

Часовой пояс: GMT + 4



Вы не можете начинать темы
Вы не можете отвечать на сообщения
Вы не можете редактировать свои сообщения
Вы не можете удалять свои сообщения
Вы не можете голосовать в опросах
Вы не можете прикреплять файлы к сообщениям
Вы не можете скачивать файлы