Грейстоук: Легенда о Тарзане, повелителе обезьян / Greystoke: The Legend of Tarzan, Lord of the Apes (Хью Хадсон / Hugh Hudson) [1984, США, драма, мелодрама, приключения, BDRip 1080p] Dub (Варус-Видео) + MVO + Sub Rus, Eng + Original Eng

Ответить на тему
 
Автор Сообщение

user ®

Стаж: 7 лет 7 месяцев

Сообщений: 20008

Пост Пост: #1 от 12-Янв-2014 00:20

[Цитировать]

Грейстоук: Легенда о Тарзане, повелителе обезьян
Greystoke: The Legend of Tarzan, Lord of the Apes
Страна: США
Жанр: драма, мелодрама, приключения
Год выпуска: 1984
Продолжительность: 02:17:00
Перевод: Профессиональный (дублированный) | Варус-Видео |
Перевод 2: Профессиональный (многоголосый закадровый)
Cубтитры: русские, английские
Оригинальная аудиодорожка: английский
Режиссер: Хью Хадсон / Hugh Hudson
В ролях: Кристофер Ламберт, Энди МакДауэлл, Ральф Ричардсон, Иэн Холм, Джеймс Фокс, Шерил Кэмпбелл, Иэн Чарлсон, Найджел Девенпорт, Николас Фэррел, Пол Джефри
Описание: Мальчик, выросший среди диких обезьян, возвращается к людям, чтобы заявить свои права на жизнь среди людей. Удивительная сага о Тарзане, созданная писателем Эдгаром Райсом Берроузом, - это волнующий рассказ о столкновении двух миров, дикого и цивилизованного.
Сэмпл: http://multi-up.com/939154
Тип релиза: BDRip 1080p
Контейнер: MKV
Видео: MPEG-4 AVC Video, 11,2 Мбит/с, 1920x800 (2,40:1),23.976 кадра / сек
Аудио: Russian, 192 Кбит/сек, 48.0 КГц, 2 каналов, 16 бит, AC3 |Дубляж Варус-Видео|
Аудио 2: Russian, 192 Кбит/сек, 48.0 КГц, 2 каналов, 16 бит, AC3 |Многоголосый закадровый|
Аудио 3: English, 1509 Кбит/сек, 48.0 КГц, 6 каналов, 24 bits, DTS
Формат субтитров: softsub (SRT)
Дополнительно: Убран плавающий рассинхрон в Русском МВО (Многоголосый закадровый) , большое спасибо за проделанную работу с дорожкой - Anoobis

Сравнение с исходным видео

taty75 vs Source


MediaInfo + Лог кодировки

Information: Standard error stream
- avs [info]: 1920x800p 1:1 @ 24000/1001 fps (cfr)
- x264 [info]: using SAR=1/1
- x264 [info]: using cpu capabilities: MMX2 SSE2Fast SSSE3 SSE4.2 AVX
- x264 [info]: profile High, level 4.1
- x264 [info]: frame I:1272 Avg QP:17.89 size:209799
- x264 [info]: frame P:38539 Avg QP:20.43 size: 95891
- x264 [info]: frame B:157278 Avg QP:22.88 size: 47812
- x264 [info]: consecutive B-frames: 1.5% 3.1% 4.4% 15.9% 14.0% 30.6% 10.4% 11.2% 4.2% 1.5% 1.1% 1.5% 0.5%
- x264 [info]: mb I I16..4: 1.1% 84.7% 14.2%
- x264 [info]: mb P I16..4: 0.2% 16.3% 1.0% P16..4: 38.7% 26.7% 14.5% 0.3% 0.1% skip: 2.3%
- x264 [info]: mb B I16..4: 0.0% 2.4% 0.1% B16..8: 45.5% 13.9% 4.5% direct:11.7% skip:21.9% L0:45.7% L1:43.6% BI:10.7%
- x264 [info]: 8x8 transform intra:93.1% inter:61.0%
- x264 [info]: direct mvs spatial:99.0% temporal:1.0%
- x264 [info]: coded y,uvDC,uvAC intra: 98.4% 94.5% 79.3% inter: 51.0% 32.7% 6.0%
- x264 [info]: i16 v,h,dc,p: 32% 13% 16% 39%
- x264 [info]: i8 v,h,dc,ddl,ddr,vr,hd,vl,hu: 8% 7% 8% 11% 15% 14% 13% 12% 13%
- x264 [info]: i4 v,h,dc,ddl,ddr,vr,hd,vl,hu: 8% 7% 3% 10% 16% 15% 15% 12% 14%
- x264 [info]: i8c dc,h,v,p: 55% 14% 14% 17%
- x264 [info]: Weighted P-Frames: Y:5.6% UV:1.6%
- x264 [info]: ref P L0: 42.5% 10.3% 24.8% 10.7% 10.5% 1.1% 0.0%
- x264 [info]: ref B L0: 71.3% 20.0% 6.7% 2.0%
- x264 [info]: ref B L1: 90.9% 9.1%
- x264 [info]: kb/s:11174.47
- encoded 197089 frames, 2.90 fps, 11174.47 kb/s

Общее
Уникальный идентификатор : 178046557298324096110517731461500485528 (0x85F28505CA19774B8D8C44A9E8BFBF98)
Полное имя : D:\торрент\Grejstok.Legenda.o.Tarzane.povelitele.obezyan.1984.BDRip.1080p.mkv
Формат : Matroska
Версия формата : Version 4 / Version 2
Размер файла : 12,5 Гбайт
Продолжительность : 2 ч. 17 м.
Общий поток : 13,1 Мбит/сек
Дата кодирования : UTC 2014-01-11 09:08:10
Программа кодирования : mkvmerge v6.6.0 ('The Edge Of The In Between') built on Dec 1 2013 17:55:00
Библиотека кодирования : libebml v1.3.0 + libmatroska v1.4.1
Видео
Идентификатор : 1
Формат : AVC
Формат/Информация : Advanced Video Codec
Профиль формата : High@L4.1
Параметр CABAC формата : Да
Параметр ReFrames формата : 5 кадров
Идентификатор кодека : V_MPEG4/ISO/AVC
Продолжительность : 2 ч. 17 м.
Битрейт : 11,2 Мбит/сек
Ширина : 1920 пикселей
Высота : 800 пикселей
Соотношение сторон : 2,40:1
Режим частоты кадров : Постоянный
Частота кадров : 23,976 кадра/сек
Цветовое пространство : YUV
Субдискретизация насыщенности : 4:2:0
Битовая глубина : 8 бит
Тип развёртки : Прогрессивная
Бит/(Пиксели*Кадры) : 0.303
Размер потока : 10,4 Гбайт (84%)
Библиотека кодирования : x264 core 140 r2377 1ca7bb9
Настройки программы : cabac=1 / ref=5 / deblock=1:-1:-1 / analyse=0x3:0x133 / me=umh / subme=10 / psy=1 / psy_rd=1.00:0.00 / mixed_ref=1 / me_range=32 / chroma_me=1 / trellis=2 / 8x8dct=1 / cqm=0 / deadzone=21,11 / fast_pskip=0 / chroma_qp_offset=-2 / threads=6 / lookahead_threads=1 / sliced_threads=0 / nr=0 / decimate=1 / interlaced=0 / bluray_compat=0 / constrained_intra=0 / bframes=12 / b_pyramid=2 / b_adapt=2 / b_bias=0 / direct=3 / weightb=1 / open_gop=0 / weightp=2 / keyint=240 / keyint_min=24 / scenecut=40 / intra_refresh=0 / rc_lookahead=50 / rc=2pass / mbtree=0 / bitrate=11175 / ratetol=2.0 / qcomp=1.00 / qpmin=0 / qpmax=51 / qpstep=4 / cplxblur=20.0 / qblur=0.5 / vbv_maxrate=50000 / vbv_bufsize=62500 / nal_hrd=none / filler=0 / ip_ratio=1.40 / pb_ratio=1.30 / aq=1:1.00
Язык : English
Default : Да
Forced : Нет
Основные цвета : BT.709
Характеристики трансфера : BT.709
Коэффициенты матрицы : BT.709
Аудио #1
Идентификатор : 2
Формат : AC-3
Формат/Информация : Audio Coding 3
Профиль формата : Dolby Digital
Расширение режима : CM (complete main)
Параметр Endianness формата : Big
Идентификатор кодека : A_AC3
Продолжительность : 2 ч. 17 м.
Вид битрейта : Постоянный
Битрейт : 192 Кбит/сек
Каналы : 2 канала
Расположение каналов : Front: L R
Частота : 48,0 КГц
Битовая глубина : 16 бит
Метод сжатия : С потерями
Размер потока : 188 Мбайт (1%)
Заголовок : Дубляж
Язык : Russian
Default : Да
Forced : Нет
Аудио #2
Идентификатор : 3
Формат : AC-3
Формат/Информация : Audio Coding 3
Расширение режима : CM (complete main)
Параметр Endianness формата : Big
Идентификатор кодека : A_AC3
Продолжительность : 2 ч. 17 м.
Вид битрейта : Постоянный
Битрейт : 192 Кбит/сек
Каналы : 2 канала
Расположение каналов : Front: L R
Частота : 48,0 КГц
Битовая глубина : 16 бит
Метод сжатия : С потерями
Размер потока : 188 Мбайт (1%)
Заголовок : MVO
Язык : Russian
Default : Нет
Forced : Нет
Аудио #3
Идентификатор : 4
Формат : DTS
Формат/Информация : Digital Theater Systems
Режим : 16
Параметр Endianness формата : Big
Идентификатор кодека : A_DTS
Продолжительность : 2 ч. 17 м.
Вид битрейта : Постоянный
Битрейт : 1509 Кбит/сек
Каналы : 6 каналов
Расположение каналов : Front: L C R, Side: L R, LFE
Частота : 48,0 КГц
Битовая глубина : 24 бит
Метод сжатия : С потерями
Размер потока : 1,44 Гбайт (12%)
Язык : English
Default : Нет
Forced : Нет
Текст #1
Идентификатор : 5
Формат : UTF-8
Идентификатор кодека : S_TEXT/UTF8
Идентификатор кодека/Информация : UTF-8 Plain Text
Язык : Russian
Default : Нет
Forced : Нет
Текст #2
Идентификатор : 6
Формат : UTF-8
Идентификатор кодека : S_TEXT/UTF8
Идентификатор кодека/Информация : UTF-8 Plain Text
Язык : English
Default : Нет
Forced : Нет
Меню
00:00:00.000 : en:00:00:00.000
00:01:41.101 : en:00:01:41.101
00:03:37.926 : en:00:03:37.926
00:05:52.185 : en:00:05:52.185
00:08:40.478 : en:00:08:40.478
00:11:14.591 : en:00:11:14.591
00:16:04.839 : en:00:16:04.839
00:18:53.007 : en:00:18:53.007
00:22:55.874 : en:00:22:55.874
00:27:50.460 : en:00:27:50.460
00:32:18.854 : en:00:32:18.854
00:37:13.648 : en:00:37:13.648
00:41:54.929 : en:00:41:54.929
00:44:56.110 : en:00:44:56.110
00:49:41.312 : en:00:49:41.312
00:53:28.872 : en:00:53:28.872
00:55:54.977 : en:00:55:54.977
00:59:53.882 : en:00:59:53.882
01:04:40.502 : en:01:04:40.502
01:09:12.065 : en:01:09:12.065
01:13:34.076 : en:01:13:34.076
01:17:00.908 : en:01:17:00.908
01:20:31.410 : en:01:20:31.410
01:24:52.337 : en:01:24:52.337
01:28:47.572 : en:01:28:47.572
01:31:58.388 : en:01:31:58.388
01:34:52.020 : en:01:34:52.020
01:36:04.342 : en:01:36:04.342
01:38:31.906 : en:01:38:31.906
01:41:44.932 : en:01:41:44.932
01:46:33.262 : en:01:46:33.262
01:52:07.638 : en:01:52:07.638
01:55:25.919 : en:01:55:25.919
01:58:10.917 : en:01:58:10.917
02:05:33.735 : en:02:05:33.735
02:10:56.599 : en:02:10:56.599
02:13:18.657 : en:02:13:18.657

Скриншот названия фильма

Скриншоты

Скачать

Скачать торрент!

Как скачивать? · Что такое торрент? · Рейтинг и ограничения

Сайт не распространяет и не хранит электронные версии произведений, а лишь предоставляет доступ к создаваемому пользователями каталогу ссылок на торрент-файлы, которые содержат только списки хеш-сумм

[Профиль] [ЛС]
Показать сообщения:    
Ответить на тему

Текущее время: Сегодня 15:57

Часовой пояс: GMT + 4



Вы не можете начинать темы
Вы не можете отвечать на сообщения
Вы не можете редактировать свои сообщения
Вы не можете удалять свои сообщения
Вы не можете голосовать в опросах
Вы не можете прикреплять файлы к сообщениям
Вы не можете скачивать файлы