Секрет Анастасии / The Secret of Anastasia (Билл Шварц / Bill Schwartz) [1997, Мультфильм, семейный, DVDRip] DVO

Ответить на тему
 
Автор Сообщение

user ®

Стаж: 13 лет

Сообщений: 15041

Пост Пост: #1 от 09-Янв-2014 11:15

[Цитировать]

Секрет Анастасии / The Secret of Anastasia
Страна: США
Жанр: Мультфильм, семейный
Продолжительность: 00:56:55.679 (85392 frames)
Год выпуска: 1997
Перевод: Профессиональный (двухголосый закадровый)
Русские субтитры: нет
Режиссёр: Билл Шварц / Bill Schwartz
Описание: Это история о приключениях младшей дочери Российского Императора Николая II - Анастасии. Друзья ничего не подозревающей Анастасии - музыкальные инструменты, помогают ей в борьбе с силами зла раскрыть главный секрет. Она единственная наследница императорской семьи и она Принцесса!
Качество: DVDRip
Формат: AVI
Видео: 720x544 (1.32:1), 25 fps, XviD build 50 ~2427 kbps avg, 0.25 bit/pixel
Аудио 1: 48 kHz, AC3 Dolby Digital, 2/0 (L,R) ch, ~192 kbps Rus
Аудио 2: 48 kHz, AC3 Dolby Digital, 2/0 (L,R) ch, ~192 kbps Eng
Субтитры: "отсутствуют"

Подробные технические данные

Format : AVIFormat/Info : Audio Video InterleaveFile size : 1.12 GiBDuration : 56mn 55sOverall bit rate : 2 827 KbpsWriting application : VirtualDubMod 1.5.10.2 (build 2540/release)Writing library : VirtualDubMod build 2540/release
VideoID : 0Format : MPEG-4 VisualFormat profile : Advanced Simple@L5Format settings, BVOP : YesFormat settings, QPel : NoFormat settings, GMC : No warppointsFormat settings, Matrix : CustomCodec ID : XVIDCodec ID/Hint : XviDDuration : 56mn 55sBit rate : 2 428 KbpsWidth : 720 pixelsHeight : 544 pixelsDisplay aspect ratio : 4:3Frame rate : 25.000 fpsResolution : 8 bitsColorimetry : 4:2:0Scan type : ProgressiveBits/(Pixel*Frame) : 0.248Stream size : 989 MiB (86%)Writing library : XviD 1.2.1 (UTC 2008-12-04)
Audio #1ID : 1Format : AC-3Format/Info : Audio Coding 3Codec ID : 2000Duration : 56mn 55sBit rate mode : ConstantBit rate : 192 KbpsChannel(s) : 2 channelsChannel positions : L RSampling rate : 48.0 KHzVideo delay : 5s 0msStream size : 78.2 MiB (7%)Alignment : Split accross interleavesInterleave, duration : 40 ms (1.00 video frame)Interleave, preload duration : 500 ms
Audio #2ID : 2Format : AC-3Format/Info : Audio Coding 3Codec ID : 2000Duration : 56mn 55sBit rate mode : ConstantBit rate : 192 KbpsChannel(s) : 2 channelsChannel positions : L RSampling rate : 48.0 KHzVideo delay : 5s 0msStream size : 78.2 MiB (7%)Alignment : Split accross interleavesInterleave, duration : 40 ms (1.00 video frame)Interleave, preload duration : 500 ms

Картинки

Скачать

Скачать торрент! Секрет Анастасии / The Secret of Anastasia (Билл Шварц / Bill Schwartz) [1997, Мультфильм, семейный, DVDRip] DVO

Как скачивать? · Что такое торрент? · Рейтинг и ограничения

Сайт не распространяет и не хранит электронные версии произведений, а лишь предоставляет доступ к создаваемому пользователями каталогу ссылок на торрент-файлы, которые содержат только списки хеш-сумм

[Профиль] [ЛС]
Показать сообщения:    
Ответить на тему

Текущее время: Сегодня 00:04

Часовой пояс: GMT + 4



Вы не можете начинать темы
Вы не можете отвечать на сообщения
Вы не можете редактировать свои сообщения
Вы не можете удалять свои сообщения
Вы не можете голосовать в опросах
Вы не можете прикреплять файлы к сообщениям
Вы не можете скачивать файлы