Дримс (Антон Сухарев) [2013, Драма, комедия, музыкальный, WEB-DLRip]

Ответить на тему
 
Автор Сообщение

user ®

Стаж: 7 лет 7 месяцев

Сообщений: 20008

Пост Пост: #1 от 09-Янв-2014 08:05

[Цитировать]

Дримс
Жанр: Драма, комедия, музыкальный
Год выпуска: 2013
Продолжительность: 01:29:48
Режиссёр: Антон Сухарев
В ролях: Дэн Дягилев, Анна Иванина, Юозас Будрайтис, Александр Баширов, Игорь Скляр, Ольга Альбанова, Татьяна Рябоконь, Хельга Филиппова, Вадим Сквирский, Сергей Уманов
Описание: Дэн — уличный музыкант-неудачник, живущий воспоминаниями о временах своей молодости. Он ловит попутные машины, намеренно превращая свою жизнь в бесконечный роад-муви, Одиссею на руинах своих грёз. Его путь — это рокерская «мечта с кровью», мечта мальчишек перестройки, звучащая из подворотен голосами Цоя и Шевчука, Башлачёва и Летова… Ему уже под сорок, а он всё ещё с гитарой за спиной, в стоптанных кедах играет в переходах свои надрывные песни. Аня — начинающая певица, неловкая и смешная, добрая и открытая миру, ранимая, но, одновременно, стойкая. На её пути к мечте немало препятствий — бессмысленные кастинги, вечное безденежье, скитания по общежитиям. Но «ребёнок», живущий внутри Ани помогает ей сохранить себя и заразить своим вдохновением окружающих. Встретятся ли герои со своей мечтой?
Сэмпл: http://multi-up.com/938181
Качество видео: WEB-DLRip
Формат видео: AVI
Видео: 720x400 (1.80:1), 24 fps, XviD build 50, 1945 kbps avg, 0.28 bit/pixel
Аудио: 44.1 kHz, AC3 Dolby Digital, 2/0 (L,R) ch, 224 kbps

MediaInfo

Drims.2013.WEBDLRip.1400Mb.avi
Format : AVI
Format/Info : Audio Video Interleave
File size : 1.37 GiB
Duration : 1h 29mn
Overall bit rate : 2 179 Kbps
Writing application : VirtualDubMod 1.5.10.3 | www.virtualdub-fr.org || (build 2550/release)
Writing library : VirtualDubMod build 2550/release
Video #0
ID : 0
Format : MPEG-4 Visual
Format profile : Advanced Simple@L5
Format settings, BVOP : 1
Format settings, QPel : No
Format settings, GMC : No warppoints
Format settings, Matrix : Custom
Codec ID : XVID
Codec ID/Hint : XviD
Duration : 1h 29mn
Bit rate : 1 945 Kbps
Width : 720 pixels
Height : 400 pixels
Display aspect ratio : 16:9
Frame rate : 24.000 fps
Color space : YUV
Chroma subsampling : 4:2:0
Bit depth : 8 bits
Scan type : Progressive
Compression mode : Lossy
Bits/(Pixel*Frame) : 0.281
Stream size : 1.22 GiB (89%)
Writing library : XviD 1.2.1 (UTC 2008-12-04)
Audio #1
ID : 1
Format : AC-3
Format/Info : Audio Coding 3
Mode extension : CM (complete main)
Codec ID : 2000
Duration : 1h 29mn
Bit rate mode : Constant
Bit rate : 224 Kbps
Channel(s) : 2 channels
Channel positions : Front: L R
Sampling rate : 44.1 KHz
Bit depth : 16 bits
Compression mode : Lossy
Stream size : 144 MiB (10%)
Alignment : Split accross interleaves
Interleave, duration : 42 ms (1.00 video frame)
Interleave, preload duration : 500 ms

Скриншот c названием фильма

Скриншоты

Скачать

Скачать торрент!

Как скачивать? · Что такое торрент? · Рейтинг и ограничения

Сайт не распространяет и не хранит электронные версии произведений, а лишь предоставляет доступ к создаваемому пользователями каталогу ссылок на торрент-файлы, которые содержат только списки хеш-сумм

[Профиль] [ЛС]
Показать сообщения:    
Ответить на тему

Текущее время: Сегодня 16:10

Часовой пояс: GMT + 4



Вы не можете начинать темы
Вы не можете отвечать на сообщения
Вы не можете редактировать свои сообщения
Вы не можете удалять свои сообщения
Вы не можете голосовать в опросах
Вы не можете прикреплять файлы к сообщениям
Вы не можете скачивать файлы