Террор в прямом эфире / The Terror Live (Ким Бён У / Kim Byeong-woo) [2013, Южная Корея, триллер, BDRip] DVO

Ответить на тему
 
Автор Сообщение

user ®

Стаж: 11 лет

Сообщений: 15151

Пост Пост: #1 от 09-Янв-2014 02:05

[Цитировать]

Террор в прямом эфире / The Terror Live
Страна: Южная Корея
Жанр: триллер
Год выпуска: 2013
Продолжительность: 01:35:37-Перевод: двухголосый (любительский) den904 deadsno
Cубтитры: нет
Оригинальная аудиодорожка: корейский-Режиссер: Ким Бён У / Kim Byeong-woo-В ролях: Ха Чон У, И Гён Ён, Чон Хё Чин, Чхве Чин Хо, Ким Со Чин-Описание: Радио ведущий программы новостей получает звонок от террориста, который угрожает взорвать мост над рекой Хан. Ведущий думает, что это розыгрыш, и беспечно говорит ему сделать это. Спустя несколько секунд происходит взрыв....- -Качество видео: BDRip (BD50)
Формат видео: AVI
Видео: XviD, 720x272 (2.65:1), 23.976 fps, 1677 kbps avg, 0.36 bit/pixel
Аудио 1: Корейский Dolby Digital, 6 ch, 384kbps
Аудио 2: Русский MPEG layer 3, 2 ch, 128 kbps

Доп. информация

Перевод на русский: Antonio

MediaInfo

Format : AVI
Format/Info : Audio Video Interleave
File size : 1.48 GiB
Duration : 1h 35mn
Overall bit rate : 2 217 Kbps
Writing application : VirtualDubMod 1.5.10.2 (build 2540/release)
Writing library : VirtualDubMod build 2540/release
Video
ID : 0
Format : MPEG-4 Visual
Format profile : Advanced Simple@L5
Format settings, BVOP : 1
Format settings, QPel : No
Format settings, GMC : No warppoints
Format settings, Matrix : Custom
Codec ID : XVID
Codec ID/Hint : XviD
Duration : 1h 35mn
Bit rate : 1 691 Kbps
Width : 720 pixels
Height : 272 pixels
Display aspect ratio : 2.647
Frame rate : 23.976 fps
Color space : YUV
Chroma subsampling : 4:2:0
Bit depth : 8 bits
Scan type : Progressive
Compression mode : Lossy
Bits/(Pixel*Frame) : 0.360
Stream size : 1.13 GiB (76%)
Writing library : XviD 73
Audio #1
ID : 1
Format : AC-3
Format/Info : Audio Coding 3
Mode extension : CM (complete main)
Format settings, Endianness : Big
Codec ID : 2000
Duration : 1h 35mn
Bit rate mode : Constant
Bit rate : 384 Kbps
Channel(s) : 6 channels
Channel positions : Front: L C R, Side: L R, LFE
Sampling rate : 48.0 KHz
Bit depth : 16 bits
Compression mode : Lossy
Stream size : 263 MiB (17%)
Alignment : Split accross interleaves
Interleave, duration : 42 ms (1.00 video frame)
Interleave, preload duration : 500 ms
Audio #2
ID : 2
Format : MPEG Audio
Format version : Version 1
Format profile : Layer 3
Mode : Joint stereo
Mode extension : MS Stereo
Codec ID : 55
Codec ID/Hint : MP3
Duration : 1h 35mn
Bit rate mode : Constant
Bit rate : 128 Kbps
Channel(s) : 2 channels
Sampling rate : 48.0 KHz
Compression mode : Lossy
Stream size : 87.5 MiB (6%)
Alignment : Aligned on interleaves
Interleave, duration : 42 ms (1.00 video frame)
Interleave, preload duration : 504 ms

Скриншот с названием фильма

Скриншоты

Скачать

Скачать торрент! Террор в прямом эфире / The Terror Live (Ким Бён У / Kim Byeong-woo) [2013, Южная Корея, триллер, BDRip] DVO

Как скачивать? · Что такое торрент? · Рейтинг и ограничения

Сайт не распространяет и не хранит электронные версии произведений, а лишь предоставляет доступ к создаваемому пользователями каталогу ссылок на торрент-файлы, которые содержат только списки хеш-сумм

[Профиль] [ЛС]
Показать сообщения:    
Ответить на тему

Текущее время: Сегодня 10:09

Часовой пояс: GMT + 4



Вы не можете начинать темы
Вы не можете отвечать на сообщения
Вы не можете редактировать свои сообщения
Вы не можете удалять свои сообщения
Вы не можете голосовать в опросах
Вы не можете прикреплять файлы к сообщениям
Вы не можете скачивать файлы