Всегда / Только ты / Always / Only You (Сон Иль Гон / Il-gon Song) [2011, Южная Корея, драма, мелодрама, DVDRip] DVO (den904 и Elegra) + Sub Rus

Ответить на тему
 
Автор Сообщение

user ®

Стаж: 11 лет

Сообщений: 15151

Пост Пост: #1 от 08-Янв-2014 22:55

[Цитировать]

Всегда / Только тыAlways / Only You
Страна: Южная Корея
Жанр: драма, мелодрама
Год выпуска: 2011
Продолжительность: 01:45:49
Перевод: Любительский (двухголосый закадровый) den904 и Elegra
Cубтитры: русские
Режиссер: Сон Иль Гон / Il-gon Song
В ролях: • Со Чжи Соп / Ji-seob So
• Хан Хё Чжу / Hyo-ju Han
• Кан Син Иль / Shin-il Kang
• Пак Чхоль Мин / Cheol-min Park
• О Гван Рок / Kwang-rok Oh
• Чжин Гу / Ku Jin
Описание: Судьба всегда преподносит людям свои сюрпризы, иногда даже самая безобидная привычка смотреть дорамы с дедушкой-охранником может создать условия для роковой встречи со своей любовью. Так и получилось у главной героини - слепой девушки Чжон Хва (Хан Хё Чжу) встретить бывшего боксера Чхоль Мина (Со Чжи Соп). Конечно, мужчина, по началу, отталкивает её своей грубостью и хмуростью, словно одичавший домашний зверь, но юная девушка растопит черствое сердце своего героя и обретёт с ним истинное счастье, которое ведомо только двум влюбленным. Это прекрасная история о роковой любви, о том, как много человек готов отдать ради счастья своей второй половины и о том, как может быть изменчива судьба, особенно тогда, когда казалось бы всё хорошо. (с) Elegra
Сэмпл: http://multi-up.com/938268 24.72MB
Качество видео: DVDRip
Формат видео: AVI
Видео: AVC, 720x544(4:3), 23.976 к/с, 1499 кбит/с
Аудио: АС-3, 48 кГц, 224 кбит/с, 2 канала, 16 бит

MediaInfo

Общее
Полное имя : E:\озвучка\Всегда\Always.DVDRip.den904 и Elegra.avi
Формат : AVI
Формат/Информация : Audio Video Interleave
Профиль формата : OpenDML
Размер файла : 1,28 Гбайт
Продолжительность : 1 ч. 45 м.
Режим общего битрейта : Переменный
Общий поток : 1736 Кбит/сек
Программа кодирования : Lavf51.12.1
Видео
Идентификатор : 0
Формат : AVC
Формат/Информация : Advanced Video Codec
Профиль формата : Baseline@L3.0
Параметр CABAC формата : Нет
Параметр ReFrames формата : 1 кадр
Параметр GOP формата : M=1, N=12
Идентификатор кодека : H264
Продолжительность : 1 ч. 45 м.
Вид битрейта : Переменный
Битрейт : 1499 Кбит/сек
Максимальный битрейт : 2250 Кбит/сек
Ширина : 720 пикселей
Высота : 544 пикселя
Соотношение сторон : 4:3
Частота кадров : 23,976 кадра/сек
Частота кадров в оригинале : 24,000 кадра/сек
Цветовое пространство : YUV
Субдискретизация насыщенности : 4:2:0
Битовая глубина : 8 бит
Тип развёртки : Прогрессивная
Бит/(Пиксели*Кадры) : 0.160
Размер потока : 1,11 Гбайт (86%)
Аудио
Идентификатор : 1
Формат : AC-3
Формат/Информация : Audio Coding 3
Расширение режима : CM (complete main)
Параметр Endianness формата : Big
Идентификатор кодека : 2000
Продолжительность : 1 ч. 45 м.
Вид битрейта : Постоянный
Битрейт : 224 Кбит/сек
Каналы : 2 канала
Расположение каналов : Front: L R
Частота : 48,0 КГц
Битовая глубина : 16 бит
Метод сжатия : С потерями
Размер потока : 170 Мбайт (13%)
Выравнивание : Соединение по промежуткам
Продолжительность промежутка : 32 мс. (0,77 видеокадр)
Время предзагрузки промежутка : 32 мс.

Скриншот c названием фильма

Скриншоты



Скачать

Скачать торрент! Всегда / Только ты / Always / Only You (Сон Иль Гон / Il-gon Song) [2011, Южная Корея, драма, мелодрама, DVDRip] DVO (den904 и Elegra) + Sub Rus

Как скачивать? · Что такое торрент? · Рейтинг и ограничения

Сайт не распространяет и не хранит электронные версии произведений, а лишь предоставляет доступ к создаваемому пользователями каталогу ссылок на торрент-файлы, которые содержат только списки хеш-сумм

[Профиль] [ЛС]
Показать сообщения:    
Ответить на тему

Текущее время: Сегодня 10:27

Часовой пояс: GMT + 4



Вы не можете начинать темы
Вы не можете отвечать на сообщения
Вы не можете редактировать свои сообщения
Вы не можете удалять свои сообщения
Вы не можете голосовать в опросах
Вы не можете прикреплять файлы к сообщениям
Вы не можете скачивать файлы