Шерлок Холмс: Игра теней / Sherlock Holmes: A Game of Shadows (Гай Ричи / Guy Ritchie) [2011, США, боевик, триллер, криминал, детектив, приключения, BDRemux 1080p] Dub + AVO (Сербин) + AVO (Гаврилов) + Sub Rus, Eng + Original Eng

Ответить на тему
 
Автор Сообщение

user ®

Стаж: 7 лет 7 месяцев

Сообщений: 20008

Пост Пост: #1 от 08-Янв-2014 22:55

[Цитировать]

Шерлок Холмс: Игра теней / Sherlock Holmes: A Game of Shadows Страна: США
Студия: Warner Bros. Pictures, Village Roadshow Pictures
Жанр: боевик, триллер, криминал, детектив, приключения
Год выпуска: 2011
Продолжительность: 02:08:44
Перевод 1: Профессиональный (дублированный) Blu-ray
Перевод 2: Авторский (одноголосый закадровый)Сербин
Перевод 3: Авторский (одноголосый закадровый)Гаврилов
Cубтитры: русские(forced,full,voronine full,SDH),украинские(forced,full),английские(full,SDH)
Оригинальная аудиодорожка: английский
Режиссер: Гай Ричи / Guy Ritchie
В ролях: Роберт Дауни мл., Джуд Лоу, Нуми Рапас, Рэйчел МакАдамс, Джаред Харрис, Стивен Фрай, Пол Андерсон, Келли Райлли, Джеральдин Джеймс, Эдди Марсан
Описание: Когда крон-принц Австрии был найден мертвым, все улики, по мнению инспектора Лестрейда, указывали на самоубийство. Но Шерлок Холмс приходит к выводу, что наследник престола был убит, и это убийство — всего лишь маленький кусочек мозаики, созданной профессором Мориарти, на самом деле гораздо более грандиозной и зловещей. Расследование оборачивается еще большей опасностью и ведет Холмса, Ватсона и их невольную союзницу цыганку Сим по всей Европе, из Англии во Францию, затем в Германию и, наконец, в Швейцарию. Но коварный Мориарти всегда на шаг впереди, он плетет паутину из смерти и разрушений, являющихся частью его великого плана, успех которого изменит ход истории.

Тип релиза: BDRemux 1080p
Контейнер: MKV
Видео: AVC, 1920x1080, 18523Kbps, 23.976 fps
Аудио 1: Russian: 48 kHz, AC3, 3/2 (L,C,R,l,r) + LFE ch, ~448.00 kbps avg |Blu-ray|
Аудио 2: Ukrainian: 48 kHz, AC3, 3/2 (L,C,R,l,r) + LFE ch, ~448.00 kbps avg |Blu-ray|
Аудио 3: Russian DTS-HD MA / 3867kbps / 5.1 / 48 kHz / 24-bit (DTS Core: 5.1 / 48 kHz / 1509 kbps / 24-bit) |Сербин|
Аудио 4: Russian DTS-HD MA / 3856kbps / 5.1 / 48 kHz / 24-bit (DTS Core: 5.1 / 48 kHz / 1509 kbps / 24-bit) |Гаврилов|
Аудио 5: English DTS-HD MA / 4079 kbps / 5.1 / 48 kHz / 24-bit (DTS Core: 5.1 / 48 kHz / 1509 kbps / 24-bit) |Original|
Чаптеры:есть

MediaInfo

General
Unique ID : 175704833001941742148717979987226998892 (0x842F8519D1619A4BB44C16BE8D11386C)
Complete name : D:\Рипы\Sherlock.Holmes.A.Game.of.Shadows.2011.1080p.Bluray.AVC.Remux-Talian-.mkv
Format : Matroska
Format version : Version 2
File size : 28.1 GiB
Duration : 2h 8mn
Overall bit rate mode : Variable
Overall bit rate : 31.2 Mbps
Movie name : -Talian-
Encoded date : UTC 2014-01-08 14:47:56
Writing application : mkvmerge v5.7.0 ('The Whirlwind') built on Jul 8 2012 20:08:51
Writing library : libebml v1.2.3 + libmatroska v1.3.0
Video
ID : 1
Format : AVC
Format/Info : Advanced Video Codec
Format profile : High@L4.1
Format settings, CABAC : Yes
Format settings, ReFrames : 2 frames
Format settings, GOP : M=1, N=10
Codec ID : V_MPEG4/ISO/AVC
Duration : 2h 8mn
Bit rate mode : Variable
Bit rate : 24.0 Mbps
Width : 1 920 pixels
Height : 1 080 pixels
Display aspect ratio : 16:9
Frame rate : 23.976 fps
Color space : YUV
Chroma subsampling : 4:2:0
Bit depth : 8 bits
Scan type : Progressive
Bits/(Pixel*Frame) : 0.482
Stream size : 21.6 GiB (77%)
Title : BD-Remux
Language : English
Default : Yes
Forced : No
Audio #1
ID : 2
Format : AC-3
Format/Info : Audio Coding 3
Mode extension : CM (complete main)
Format settings, Endianness : Big
Codec ID : A_AC3
Duration : 2h 8mn
Bit rate mode : Constant
Bit rate : 448 Kbps
Channel(s) : 6 channels
Channel positions : Front: L C R, Side: L R, LFE
Sampling rate : 48.0 KHz
Bit depth : 16 bits
Compression mode : Lossy
Stream size : 413 MiB (1%)
Title : DUB- Blu-ray CEE
Language : Russian
Default : Yes
Forced : No
Audio #2
ID : 3
Format : AC-3
Format/Info : Audio Coding 3
Mode extension : CM (complete main)
Format settings, Endianness : Big
Codec ID : A_AC3
Duration : 2h 8mn
Bit rate mode : Constant
Bit rate : 448 Kbps
Channel(s) : 6 channels
Channel positions : Front: L C R, Side: L R, LFE
Sampling rate : 48.0 KHz
Bit depth : 16 bits
Compression mode : Lossy
Stream size : 413 MiB (1%)
Title : DUB- Blu-ray CEE
Language : Ukrainian
Default : No
Forced : No
Audio #3
ID : 4
Format : DTS
Format/Info : Digital Theater Systems
Format profile : MA / Core
Codec ID : A_DTS
Duration : 2h 8mn
Bit rate mode : Variable
Bit rate : 2 158 Kbps / 1 510 Kbps
Channel(s) : 6 channels
Channel positions : Front: L C R, Side: L R, LFE
Sampling rate : 48.0 KHz
Bit depth : 24 bits
Compression mode : Lossless / Lossy
Title : AVO- Ю.Сербин
Language : Russian
Default : No
Forced : No
Audio #4
ID : 5
Format : DTS
Format/Info : Digital Theater Systems
Format profile : MA / Core
Codec ID : A_DTS
Duration : 2h 8mn
Bit rate mode : Variable
Bit rate : 2 011 Kbps / 1 510 Kbps
Channel(s) : 6 channels
Channel positions : Front: L C R, Side: L R, LFE
Sampling rate : 48.0 KHz
Bit depth : 24 bits
Compression mode : Lossless / Lossy
Title : AVO- А.Гаврилов
Language : Russian
Default : No
Forced : No
Audio #5
ID : 6
Format : DTS
Format/Info : Digital Theater Systems
Format profile : MA / Core
Codec ID : A_DTS
Duration : 2h 8mn
Bit rate mode : Variable
Bit rate : 1 561 Kbps / 1 510 Kbps
Channel(s) : 6 channels
Channel positions : Front: L C R, Side: L R, LFE
Sampling rate : 48.0 KHz
Bit depth : 24 bits
Compression mode : Lossless / Lossy
Title : Original
Language : English
Default : No
Forced : No
Text #1
ID : 7
Format : UTF-8
Codec ID : S_TEXT/UTF8
Codec ID/Info : UTF-8 Plain Text
Title : Sub-forced
Language : Russian
Default : Yes
Forced : No
Text #2
ID : 8
Format : UTF-8
Codec ID : S_TEXT/UTF8
Codec ID/Info : UTF-8 Plain Text
Title : Sub-Blu-ray CEE
Language : Russian
Default : No
Forced : No
Text #3
ID : 9
Format : UTF-8
Codec ID : S_TEXT/UTF8
Codec ID/Info : UTF-8 Plain Text
Title : Sub-voronine
Language : Russian
Default : No
Forced : No
Text #4
ID : 10
Format : UTF-8
Codec ID : S_TEXT/UTF8
Codec ID/Info : UTF-8 Plain Text
Title : Sub-SDH-voronine
Language : Russian
Default : No
Forced : No
Text #5
ID : 11
Format : UTF-8
Codec ID : S_TEXT/UTF8
Codec ID/Info : UTF-8 Plain Text
Title : Sub-forced
Language : Ukrainian
Default : No
Forced : No
Text #6
ID : 12
Format : UTF-8
Codec ID : S_TEXT/UTF8
Codec ID/Info : UTF-8 Plain Text
Title : Sub-full
Language : Ukrainian
Default : No
Forced : No
Text #7
ID : 13
Format : UTF-8
Codec ID : S_TEXT/UTF8
Codec ID/Info : UTF-8 Plain Text
Title : Sub-full
Language : English
Default : No
Forced : No
Text #8
ID : 14
Format : UTF-8
Codec ID : S_TEXT/UTF8
Codec ID/Info : UTF-8 Plain Text
Title : Sub-SDH
Language : English
Default : No
Forced : No
Menu
00:00:00.000 : 00:00:00.000
00:05:35.418 : 00:05:35.418
00:12:10.521 : 00:12:10.521
00:23:27.364 : 00:23:27.364
00:27:56.425 : 00:27:56.425
00:32:11.221 : 00:32:11.221
00:38:03.698 : 00:38:03.698
00:44:20.283 : 00:44:20.283
00:48:40.876 : 00:48:40.876
00:56:19.668 : 00:56:19.668
01:01:16.673 : 01:01:16.673
01:07:35.093 : 01:07:35.093
01:15:23.436 : 01:15:23.436
01:19:58.836 : 01:19:58.836
01:26:51.832 : 01:26:51.832
01:31:27.107 : 01:31:27.107
01:39:32.717 : 01:39:32.717
01:45:32.701 : 01:45:32.701
01:53:45.652 : 01:53:45.652
02:02:56.160 : 02:02:56.160

Скриншоты



Скачать

Скачать торрент!

Как скачивать? · Что такое торрент? · Рейтинг и ограничения

Сайт не распространяет и не хранит электронные версии произведений, а лишь предоставляет доступ к создаваемому пользователями каталогу ссылок на торрент-файлы, которые содержат только списки хеш-сумм

[Профиль] [ЛС]
Показать сообщения:    
Ответить на тему

Текущее время: Сегодня 17:50

Часовой пояс: GMT + 4



Вы не можете начинать темы
Вы не можете отвечать на сообщения
Вы не можете редактировать свои сообщения
Вы не можете удалять свои сообщения
Вы не можете голосовать в опросах
Вы не можете прикреплять файлы к сообщениям
Вы не можете скачивать файлы