С двумя девушками / Iddarammayilatho (Пури Джаганат / Puri Jagannadh) [2013, Индия, Боевик, мелодрама, комедия НDRip] MVO (ICG) + Sub Rus

Ответить на тему
 
Автор Сообщение

user ®

Стаж: 12 лет

Сообщений: 15092

Пост Пост: #1 от 08-Янв-2014 19:45

[Цитировать]

С двумя девушками / Iddarammayilatho
-Страна: Индия
Жанр: Боевик, мелодрама, комедия
Год выпуска: 2013
Продолжительность: 02:20:16--Перевод: Любительский (многоголосый закадровый) - ICG
Cубтитры: Pусские (только песни) [перевод: Rummata]--Режиссер: Пури Джаганат / Puri Jagannadh-В ролях: Аллу Арджун, Амала Пол, Катрин Треса, Шавар Али, Брахманандам, Рао Рамеш, Али, Таникелла Бхарани--Описание: Аканша приехала в Испанию изучать психологию, предчувствуя свободу нового европейского мира. В съемной комнате она обнаружила дневник незнакомки, который открыл перед ней историю красивой и трогательной любви Комалы и Санджу. Аканша сопереживала им, листая страницу за страницей, словно рукописный роман. Пока неожиданно не столкнулась лицом к лицу с героем этого романа. Что-то насторожило и привлекло ее в этом парне. Быть может, затаенная печаль в глубине сердца? А где же тогда Комала, любовь которой пылала огнем со страниц дневника?--Доп. информация: Фильм снят на языке телугу.-- | Трейлер | Сэмпл--Качество видео: НDRip (исх. BDRip 1080p [DDR])
Формат видео: AVI-Видео: XviD, 720x304, 24 fps, 1349 kbps
Аудио: 48 kHz, МР3, 2 ch, 128 kbps
Формат субтитров: hardsub (неотключаемые, вшитые в картинку)-Перевод, редакция: Rummata (спасибо!)
Озвучено: ICG (спасибо!)
Риппер: soso4eg--Сэмпл / Sample-- -
-
-

Скриншот с названием:


-

Скриншоты:






-

MI

Общее
Полное имя : D:\[Релизы]\S.Dvumya.Devushkami.2013.HDRip.XviD.soso4eg.avi
Формат : AVI
Формат/Информация : Audio Video Interleave
Размер файла : 1,46 Гбайт
Продолжительность : 2 ч. 20 м.
Общий поток : 1487 Кбит/сек
Название фильма : S.Dvumya.Devushkami.2013.HDRip.XviD.soso4eg
Программа кодирования : VirtualDubMod 1.5.10.3 | www.virtualdub-fr.org || (build 2550/release)
Видео
Идентификатор : 0
Формат : MPEG-4 Visual
Профиль формата : Advanced Simple@L5
Параметр BVOP формата : 2
Параметр QPel формата : Нет
Параметр GMC формата : Без точки перехода
Параметр матрицы формата : Default (MPEG)
Идентификатор кодека : XVID
Идентификатор кодека/Подсказка : XviD
Продолжительность : 2 ч. 20 м.
Битрейт : 1349 Кбит/сек
Ширина : 720 пикселей
Высота : 304 пикселя
Соотношение сторон : 2,35:1
Частота кадров : 24,000 кадра/сек
Цветовое пространство : YUV
Субдискретизация насыщенности : 4:2:0
Битовая глубина : 8 бит
Тип развёртки : Прогрессивная
Метод сжатия : С потерями
Бит/(Пиксели*Кадры) : 0.257
Размер потока : 1,32 Гбайт (91%)
Библиотека кодирования : XviD 1.2.1 (UTC 2008-12-04)
Аудио
Идентификатор : 1
Формат : MPEG Audio
Версия формата : Version 1
Профиль формата : Layer 3
Режим : Joint stereo
Расширение режима : MS Stereo
Идентификатор кодека : 55
Идентификатор кодека/Подсказка : MP3
Продолжительность : 2 ч. 20 м.
Вид битрейта : Постоянный
Битрейт : 128 Кбит/сек
Каналы : 2 канала
Частота : 48,0 КГц
Метод сжатия : С потерями
Размер потока : 128 Мбайт (9%)
Выравнивание : Соединение по промежуткам
Продолжительность промежутка : 42 мс. (1,00 видеокадр)
Время предзагрузки промежутка : 504 мс.
Скачать

Скачать торрент! С двумя девушками / Iddarammayilatho (Пури Джаганат / Puri Jagannadh) [2013, Индия, Боевик, мелодрама, комедия НDRip] MVO (ICG) + Sub Rus

Как скачивать? · Что такое торрент? · Рейтинг и ограничения

Сайт не распространяет и не хранит электронные версии произведений, а лишь предоставляет доступ к создаваемому пользователями каталогу ссылок на торрент-файлы, которые содержат только списки хеш-сумм

[Профиль] [ЛС]
Показать сообщения:    
Ответить на тему

Текущее время: Сегодня 18:04

Часовой пояс: GMT + 4



Вы не можете начинать темы
Вы не можете отвечать на сообщения
Вы не можете редактировать свои сообщения
Вы не можете удалять свои сообщения
Вы не можете голосовать в опросах
Вы не можете прикреплять файлы к сообщениям
Вы не можете скачивать файлы