Дело Артамоновых (Григорий Рошаль) [1941, экранизация, драма, SATRip]

Ответить на тему
 
Автор Сообщение

user ®

Стаж: 7 лет 7 месяцев

Сообщений: 20008

Пост Пост: #1 от 08-Янв-2014 19:45

[Цитировать]

Дело Артамоновых- -Жанр: экранизация, драма
Год выпуска: 1941
Продолжительность: 01:28:31
Режиссер: Григорий Рошаль
-В ролях: Сергей Ромоданов, Тамара Чистякова, Михаил Державин (ст.), Вера Марецкая, Владимир Балашов, Александр Смирнов, Борис Шухмин, Нина Зорская, Надир Малишевский, Григорий Шпигель, Евгений Тетерин, Георгий Светлани, Любовь Орлова, Константин Лишафаев, Гари Миновицкая, Татьяна Барышева, Михаил Пуговкин-Описание: Экранизация одноименного романа М.Горького.
Фабрикант Илья Артамонов из бывших крепостных. Его стремление укреплять и развивать дело не знает преград. Он еще связан с крестьянами и мастеровыми, но с его смертью эта связь обрывается. Между Петром Артамоновым, его сыном, ставшим хозяином фабрики, и рабочими вырастает стена вражды. Назревают первые политические выступления. На сторону пролетариата переходит наследник артамоновского дела Илья Артамонов — младший.
-Качество видео: SATRip /
Формат видео: AVI
Видео: 704x528 (1.33:1), 25 fps, XviD build 73 ~2072 kbps avg, 0.22 bit/pixel
Аудио: 44.100 kHz, Microsoft MPEG, 2 ch, ~192.00 kbps avg
-

МИ

General
Complete name : D:\TORRENTS for WORK\RIPS in WORK\Delo_Atamonovyh_1941_TVRip_Menen.avi
Format : AVI
Format/Info : Audio Video Interleave
File size : 1.41 GiB
Duration : 1h 28mn
Overall bit rate : 2 275 Kbps
Movie name : Delo_Atamonovyh_1941_TVRip_Menen
Director : Menen
Writing application : VirtualDubMod 1.5.10.2 (build 2540/release)
Video
ID : 0
Format : MPEG-4 Visual
Format profile : Advanced Simple@L5
Format settings, BVOP : 1
Format settings, QPel : No
Format settings, GMC : No warppoints
Format settings, Matrix : Custom
Codec ID : XVID
Codec ID/Hint : XviD
Duration : 1h 28mn
Bit rate : 2 073 Kbps
Width : 704 pixels
Height : 528 pixels
Display aspect ratio : 4:3
Frame rate : 25.000 fps
Color space : YUV
Chroma subsampling : 4:2:0
Bit depth : 8 bits
Scan type : Progressive
Compression mode : Lossy
Bits/(Pixel*Frame) : 0.223
Stream size : 1.28 GiB (91%)
Writing library : XviD 73
Audio
ID : 1
Format : MPEG Audio
Format version : Version 1
Format profile : Layer 2
Codec ID : 50
Duration : 1h 28mn
Bit rate mode : Constant
Bit rate : 192 Kbps
Channel(s) : 2 channels
Sampling rate : 44.1 KHz
Compression mode : Lossy
Stream size : 122 MiB (8%)
Alignment : Split accross interleaves
Interleave, duration : 40 ms (1.00 video frame)
Interleave, preload duration : 500 ms

-

Скриншоты

-
Скачать

Скачать торрент!

Как скачивать? · Что такое торрент? · Рейтинг и ограничения

Сайт не распространяет и не хранит электронные версии произведений, а лишь предоставляет доступ к создаваемому пользователями каталогу ссылок на торрент-файлы, которые содержат только списки хеш-сумм

[Профиль] [ЛС]
Показать сообщения:    
Ответить на тему

Текущее время: Сегодня 21:25

Часовой пояс: GMT + 4



Вы не можете начинать темы
Вы не можете отвечать на сообщения
Вы не можете редактировать свои сообщения
Вы не можете удалять свои сообщения
Вы не можете голосовать в опросах
Вы не можете прикреплять файлы к сообщениям
Вы не можете скачивать файлы