Мальчишник 2: Из Вегаса в Бангкок / The Hangover Part II (Тодд Филлипс / Todd Phillips) [2011, США, комедия, BDRemux 1080p] Dub + VO (Doctor Joker / Goblin) + Sub Rus, Eng + Original Eng

Ответить на тему
 
Автор Сообщение

user ®

Стаж: 7 лет 7 месяцев

Сообщений: 20008

Пост Пост: #1 от 08-Янв-2014 16:35

[Цитировать]

Мальчишник 2: Из Вегаса в Бангкок / The Hangover Part II Страна: США
Студия: Warner Bros. Pictures
Жанр: комедия
Год выпуска: 2011
Продолжительность: 01:41:48
Перевод 1: Профессиональный (дублированный) Blu-ray CEE
Перевод 2: Профессиональный (дублированный, украинский) Blu-Ray CEE
Перевод 3: Одноголосый закадровый (Алексей «Doctor_Joker» Матвеев) по переводу Дмитрия «Goblin'a» Пучкова
Cубтитры: русские (forced,full Blu-ray),русские(Дмитрий "Goblin" Пучков,voronine),английские
Оригинальная аудиодорожка: английский
Режиссер: Тодд Филлипс / Todd Phillips
В ролях: Брэдли Купер, Эд Хелмс, Зак Галифианакис, Майк Тайсон, Джастин Барта, Кен Жонг, Пол Джаматти, Джефри Тэмбор, Мэйсон С. Ли, Джеми Чунг
Описание: В продолжении культовой комедии «Мальчишник в Вегасе» четверо друзей Фил, Стю, Алан и Даг отправляются в экзотический Тайланд на свадьбу Стю. После безумного мальчишника в Лас-Вегасе, они решают не испытывать судьбу во второй раз, а потому в Бангкоке планируют очень спокойное и безопасное празднество. Но как обычно, все идет совсем не по плану… Что происходит в Вегасе, остается в Вегасе. Но то, что происходит в Бангкоке — это просто настоящее безумие!
Доп.информация:За перевод Дмитрий "Goblin" Пучков большое спасибо [url=http://***/forum/viewtopic.php?t=3825936]Bloodymetall[/url]


Тип релиза: BDRemux
Контейнер: MKV
Исходник:The Hangover Part II 2011 BluRay 1080p AVC DTS-HD MA 5.1-CHDBits
Видео: AVC,1920x1080,19951kbps,23,976 fps
Аудио 1: Russian: 48 kHz, AC3, 3/2 (L,C,R,l,r) + LFE ch, ~640.00 kbps avg |Дубляж, Blu-ray CEE|
Аудио 2: Ukrainian: 48 kHz, AC3, 3/2 (L,C,R,l,r) + LFE ch, ~640.00 kbps avg |Дубляж, Blu-ray CEE|
Аудио 3: Russian: 48 kHz, DTS, 3/2 (L,C,R,l,r) + LFE ch, ~1536.00 kbps avg |Doctor_Joker|
Аудио 4: English / DTS-HD Master Audio / 5.1 / 48 kHz / 4002 kbps / 24-bit (DTS Core: 5.1 / 48 kHz / 1509 kbps / 24-bit) |Original|
Чаптеры:есть

MediaInfo

General
Unique ID : 239384067561580126555034118684023228513 (0xB417B1C3B6BF3607BE9678BA8DF48861)
Complete name : D:\Downloads\Видео\Рипы\The Hangover Part II 2011 BluRay REMUX 1080p.mkv
Format : Matroska
File size : 19.0 GiB
Duration : 1h 41mn
Overall bit rate : 26.7 Mbps
Movie name : -Talian-
Encoded date : UTC 2011-11-28 07:55:51
Writing application : mkvmerge v5.0.1 ('Es ist Sommer') built on Oct 9 2011 11:55:43
Writing library : libebml v1.2.2 + libmatroska v1.3.0
Video
ID : 1
Format : AVC
Format/Info : Advanced Video Codec
Format profile : High@L4.1
Format settings, CABAC : Yes
Format settings, ReFrames : 2 frames
Codec ID : V_MPEG4/ISO/AVC
Duration : 1h 41mn
Bit rate mode : Variable
Bit rate : 21.9 Mbps
Width : 1 920 pixels
Height : 1 080 pixels
Display aspect ratio : 16:9
Frame rate : 23.976 fps
Color space : YUV
Chroma subsampling : 4:2:0
Bit depth : 8 bits
Scan type : Progressive
Bits/(Pixel*Frame) : 0.440
Stream size : 15.5 GiB (82%)
Title : The Hangover Part II 2011 BluRay REMUX 1080p
Language : English
Audio #1
ID : 2
Format : AC-3
Format/Info : Audio Coding 3
Mode extension : CM (complete main)
Codec ID : A_AC3
Duration : 1h 41mn
Bit rate mode : Constant
Bit rate : 640 Kbps
Channel(s) : 6 channels
Channel positions : Front: L C R, Side: L R, LFE
Sampling rate : 48.0 KHz
Bit depth : 16 bits
Compression mode : Lossy
Stream size : 466 MiB (2%)
Title : DUB-DUB-Blu-ray
Language : Russian
Audio #2
ID : 3
Format : AC-3
Format/Info : Audio Coding 3
Mode extension : CM (complete main)
Codec ID : A_AC3
Duration : 1h 41mn
Bit rate mode : Constant
Bit rate : 640 Kbps
Channel(s) : 6 channels
Channel positions : Front: L C R, Side: L R, LFE
Sampling rate : 48.0 KHz
Bit depth : 16 bits
Compression mode : Lossy
Stream size : 466 MiB (2%)
Title : DUB-Blu-ray
Language : Ukrainian
Audio #3
ID : 4
Format : DTS
Format/Info : Digital Theater Systems
Codec ID : A_DTS
Duration : 1h 41mn
Bit rate mode : Constant
Bit rate : 1 510 Kbps
Channel(s) : 6 channels
Channel positions : Front: L C R, Side: L R, LFE
Sampling rate : 48.0 KHz
Bit depth : 24 bits
Compression mode : Lossy
Stream size : 1.07 GiB (6%)
Title : VO-Goblin
Language : Russian
Audio #4
ID : 5
Format : DTS
Format/Info : Digital Theater Systems
Format profile : MA / Core
Codec ID : A_DTS
Duration : 1h 41mn
Bit rate mode : Variable
Bit rate : 1 561 Kbps / 1 510 Kbps
Channel(s) : 6 channels
Channel positions : Front: L C R, Side: L R, LFE
Sampling rate : 48.0 KHz
Bit depth : 24 bits
Compression mode : Lossless / Lossy
Title : Original
Language : English
Text #1
ID : 6
Format : UTF-8
Codec ID : S_TEXT/UTF8
Codec ID/Info : UTF-8 Plain Text
Title : Sub-forced
Language : Russian
Text #2
ID : 7
Format : UTF-8
Codec ID : S_TEXT/UTF8
Codec ID/Info : UTF-8 Plain Text
Title : Sub
Language : Russian
Text #3
ID : 8
Format : UTF-8
Codec ID : S_TEXT/UTF8
Codec ID/Info : UTF-8 Plain Text
Title : Sub-Дмитрий "Goblin" Пучков
Language : Russian
Text #4
ID : 9
Format : UTF-8
Codec ID : S_TEXT/UTF8
Codec ID/Info : UTF-8 Plain Text
Title : Sub-voronine
Language : Russian
Text #5
ID : 10
Format : UTF-8
Codec ID : S_TEXT/UTF8
Codec ID/Info : UTF-8 Plain Text
Title : Sub
Language : English
Menu
00:00:00.000 : :00:00:00.000
00:09:00.081 : :00:09:00.081
00:17:02.813 : :00:17:02.813
00:24:20.542 : :00:24:20.542
00:34:00.413 : :00:34:00.413
00:44:21.993 : :00:44:21.993
00:54:58.545 : :00:54:58.545
01:04:56.267 : :01:04:56.267
01:13:42.918 : :01:13:42.918
01:23:35.302 : :01:23:35.302
01:33:01.576 : :01:33:01.576
01:37:07.113 : :01:37:07.113


Скачать

Скачать торрент!

Как скачивать? · Что такое торрент? · Рейтинг и ограничения

Сайт не распространяет и не хранит электронные версии произведений, а лишь предоставляет доступ к создаваемому пользователями каталогу ссылок на торрент-файлы, которые содержат только списки хеш-сумм

[Профиль] [ЛС]
Показать сообщения:    
Ответить на тему

Текущее время: Сегодня 00:17

Часовой пояс: GMT + 4



Вы не можете начинать темы
Вы не можете отвечать на сообщения
Вы не можете редактировать свои сообщения
Вы не можете удалять свои сообщения
Вы не можете голосовать в опросах
Вы не можете прикреплять файлы к сообщениям
Вы не можете скачивать файлы