Денискины рассказы (Татарский, Генин, Горлов, Шахмалиева) [1973 г., комедия, семейный, детский]

Ответить на тему
 
Автор Сообщение

user ®

Стаж: 7 лет 7 месяцев

Сообщений: 20008

Пост Пост: #1 от 08-Янв-2014 16:35

[Цитировать]

Денискины рассказы Год выпуска: 1973
Жанр: комедия, семейный, детский
Продолжительность: 00:24:43 + 00:27:51 + 00:17:47 + 00:17:31
Режиссер: Татарский, Генин, Горлов, Шахмалиева
Описание:
Где это видано, где это слыхано
Денис Кораблев, ученик младших классов. Не обладая особыми музыкальными талантами, вызывается петь на школьном утреннике сатирические частушки …
Телефильм по рассказам Виктора Драгунского

В ролях:
Сережа Крупенников, Алеша Сироткин, Андрей Петров, Антонина Павлычева
Режиссер-постановщик: Борис Горлов
Автор сценария: Мария Зверева
Оператор-постановщик: Ростислав Давыдов
Художник-постановщик: Лариса Шилова
Композитор: Исаак Шварц
Звукорежиссер: Константин Лашков.

Трансляция спутникового канала:

Семпл: http://yadi.sk/d/YhHo0mSVFdNqM
-
Капитан
Денис Кораблев, веселый мальчишка, мечтающий о дальних странствиях, наконец встречается со «старым морским волком», своими дядей, капитаном дальнего плавания ...
Детская киноповесть по мотивам рассказов Виктора Драгунского.
В ролях: Петя Моисеев, Ролан Быков, Алеша Сироткин, Рита Сергеечева, Валентина Теличкина
Режиссер-постановщик: Аян Шахмалиева
Автор сценария: Мария Зверева
Оператор-постановщик: Борис Тимковский
Художник-постановщик: Марксен Гаухман-Свердлов
Композитор: Исаак Шварц
Звукорежиссер: Тигран Силаев

Трансляция спутникового канала:

Семпл: http://yadi.sk/d/DAYnJUwMFdPXQ-Подзорная труба
Родители Дениса Кораблева уставшие от шалостей своего сынишки. Смастерили «подзорную трубу», которая якобы им позволяет всегда наблюдать за Дениской …
Новелла по мотивам рассказа из книги Виктора Драгунского «Денискины рассказы».
В ролях: Саша Михайлов, Леня Михайлов, Рита Сергеечева, Сережа Годунов, Клара Лучко, Олег Басилашвили
Режиссер-постановщик: Марк Генин
Автор сценария: Валерий Попов
Оператор-постановщик: Владимир Бурыкин
Художник-постановщик: Марксен Гаухман-Свердлов
Композитор: Владлен Чистяков
Звукорежиссер: Тигран Силае

Трансляция спутникового канала:

Семпл: http://yadi.sk/d/TtJy3DV3FdQJg-Пожар во флигеле или подвиг во льдах
Шалун Денис Кораблев и его дружок Мишка Слонов в очередной раз опаздывают на урок. И причина вроде бы уважительная – мальчишки помогали ловить орла, улетевшего из живого уголка, но им, конечно, никто не верит…
Детская телевизионная киноповесть по книге Виктора Драгунского «Денискины рассказы»
В ролях: Саша Михайлов, Саша Хмельницкий, Олег Даль, Лиана Жвания, Ольга Богданова, Рита Сергеечева, Витя Татарский, Е. Ванчугова
Режиссер-постановщик: Евгений Татарский
Автор сценария: Валерий Попов
Оператор-постановщик: Генрих Маранджян
Художник-постановщик: Исаак Каплан
Композитор: Исаак Шварц
Звукорежиссер: Константин Лашков

Трансляция спутникового канала:

Семпл: http://yadi.sk/d/k7q_qODCFdQww
-
Качество видео: DVB
Формат видео: MPEG-PS
Видео: MPEG2 Video, 720x576 (4:3), 25 fps, 3100 kbps
Аудио: MPEG Audiо, 2 сh, 48 kHz, 192 kbps

MediaInfo

Где это видано, где это слыхано

D:\Денискины рассказы. (1973)\Где это видано, где это слыхано. (1973)_DVB by SLuMeP.mpg
General
Complete name : D:\Денискины рассказы. (1973)\Где это видано, где это слыхано. (1973)_DVB by SLuMeP.mpg
Format : MPEG-PS
File size : 605 MiB
Duration : 24mn 43s
Overall bit rate mode : Variable
Overall bit rate : 3 418 Kbps
Video #224
ID : 224 (0xE0)
Format : MPEG Video
Format version : Version 2
Format profile : Main@Main
Format settings, BVOP : Yes
Format settings, Matrix : Custom
Duration : 24mn 43s
Bit rate mode : Variable
Bit rate : 3 158 Kbps
Maximum bit rate : 5 000 Kbps
Width : 720 pixels
Height : 576 pixels
Display aspect ratio : 4:3
Frame rate : 25.000 fps
Standard : PAL
Color space : YUV
Chroma subsampling : 4:2:0
Bit depth : 8 bits
Scan type : Interlaced
Scan order : Top Field First
Compression mode : Lossy
Bits/(Pixel*Frame) : 0.305
Stream size : 559 MiB (92%)
Audio #192
ID : 192 (0xC0)
Format : MPEG Audio
Format version : Version 1
Format profile : Layer 2
Duration : 24mn 43s
Bit rate mode : Constant
Bit rate : 192 Kbps
Channel(s) : 2 channels
Sampling rate : 48.0 KHz
Compression mode : Lossy
Stream size : 34.0 MiB (6%)

Капитан

D:\Денискины рассказы. (1973)\Капитан. (1973)_DVB by SLuMeP.mpg
General
Complete name : D:\Денискины рассказы. (1973)\Капитан. (1973)_DVB by SLuMeP.mpg
Format : MPEG-PS
File size : 665 MiB
Duration : 27mn 51s
Overall bit rate mode : Variable
Overall bit rate : 3 338 Kbps
Video #224
ID : 224 (0xE0)
Format : MPEG Video
Format version : Version 2
Format profile : Main@Main
Format settings, BVOP : Yes
Format settings, Matrix : Custom
Duration : 27mn 51s
Bit rate mode : Variable
Bit rate : 3 079 Kbps
Maximum bit rate : 5 000 Kbps
Width : 720 pixels
Height : 576 pixels
Display aspect ratio : 4:3
Frame rate : 25.000 fps
Standard : PAL
Color space : YUV
Chroma subsampling : 4:2:0
Bit depth : 8 bits
Scan type : Interlaced
Scan order : Top Field First
Compression mode : Lossy
Bits/(Pixel*Frame) : 0.297
Stream size : 614 MiB (92%)
Audio #192
ID : 192 (0xC0)
Format : MPEG Audio
Format version : Version 1
Format profile : Layer 2
Duration : 27mn 51s
Bit rate mode : Constant
Bit rate : 192 Kbps
Channel(s) : 2 channels
Sampling rate : 48.0 KHz
Compression mode : Lossy
Stream size : 38.3 MiB (6%)

Подзорная труба

D:\Денискины рассказы. (1973)\Подзорная труба. (1973)_DVB by SLuMeP.mpg
General
Complete name : D:\Денискины рассказы. (1973)\Подзорная труба. (1973)_DVB by SLuMeP.mpg
Format : MPEG-PS
File size : 425 MiB
Duration : 17mn 47s
Overall bit rate mode : Variable
Overall bit rate : 3 337 Kbps
Video #224
ID : 224 (0xE0)
Format : MPEG Video
Format version : Version 2
Format profile : Main@Main
Format settings, BVOP : Yes
Format settings, Matrix : Custom
Duration : 17mn 47s
Bit rate mode : Variable
Bit rate : 3 079 Kbps
Maximum bit rate : 5 000 Kbps
Width : 720 pixels
Height : 576 pixels
Display aspect ratio : 4:3
Frame rate : 25.000 fps
Standard : PAL
Color space : YUV
Chroma subsampling : 4:2:0
Bit depth : 8 bits
Scan type : Interlaced
Scan order : Top Field First
Compression mode : Lossy
Bits/(Pixel*Frame) : 0.297
Stream size : 392 MiB (92%)
Audio #192
ID : 192 (0xC0)
Format : MPEG Audio
Format version : Version 1
Format profile : Layer 2
Duration : 17mn 47s
Bit rate mode : Constant
Bit rate : 192 Kbps
Channel(s) : 2 channels
Sampling rate : 48.0 KHz
Compression mode : Lossy
Stream size : 24.4 MiB (6%)

Пожар во флигеле или подвиг во льдах

D:\Денискины рассказы. (1973)\Пожар во флигеле или подвиг во льдах. (1973)_DVB by SLuMeP.mpg
General
Complete name : D:\Денискины рассказы. (1973)\Пожар во флигеле или подвиг во льдах. (1973)_DVB by SLuMeP.mpg
Format : MPEG-PS
File size : 422 MiB
Duration : 17mn 31s
Overall bit rate mode : Variable
Overall bit rate : 3 366 Kbps
Video #224
ID : 224 (0xE0)
Format : MPEG Video
Format version : Version 2
Format profile : Main@Main
Format settings, BVOP : Yes
Format settings, Matrix : Custom
Duration : 17mn 31s
Bit rate mode : Variable
Bit rate : 3 107 Kbps
Maximum bit rate : 5 000 Kbps
Width : 720 pixels
Height : 576 pixels
Display aspect ratio : 4:3
Frame rate : 25.000 fps
Standard : PAL
Color space : YUV
Chroma subsampling : 4:2:0
Bit depth : 8 bits
Scan type : Interlaced
Scan order : Top Field First
Compression mode : Lossy
Bits/(Pixel*Frame) : 0.300
Stream size : 390 MiB (92%)
Audio #192
ID : 192 (0xC0)
Format : MPEG Audio
Format version : Version 1
Format profile : Layer 2
Duration : 17mn 31s
Bit rate mode : Constant
Bit rate : 192 Kbps
Channel(s) : 2 channels
Sampling rate : 48.0 KHz
Compression mode : Lossy
Stream size : 24.1 MiB (6%)
Скачать

Скачать торрент!

Как скачивать? · Что такое торрент? · Рейтинг и ограничения

Сайт не распространяет и не хранит электронные версии произведений, а лишь предоставляет доступ к создаваемому пользователями каталогу ссылок на торрент-файлы, которые содержат только списки хеш-сумм

[Профиль] [ЛС]
Показать сообщения:    
Ответить на тему

Текущее время: Сегодня 17:50

Часовой пояс: GMT + 4



Вы не можете начинать темы
Вы не можете отвечать на сообщения
Вы не можете редактировать свои сообщения
Вы не можете удалять свои сообщения
Вы не можете голосовать в опросах
Вы не можете прикреплять файлы к сообщениям
Вы не можете скачивать файлы