Бумер (Петр Буслов) [2003, криминальная драма, DVDRip-AVC, AVC]

Ответить на тему
 
Автор Сообщение

user ®

Стаж: 7 лет 7 месяцев

Сообщений: 20008

Пост Пост: #1 от 08-Янв-2014 00:35

[Цитировать]

Бумер
Жанр: криминальная драма
Год выпуска: 2003
Продолжительность: 01:49:53
Режиссёр: Петр Буслов
В ролях: Владимир Вдовиченков (Костян «Кот»), Андрей Мерзликин (Димон «Ошпаренный»), Максим Коновалов (Лёха «Килла»), Сергей Горобченко (Петя «Рама»), Яна Николаева (Катька), Людмила Полякова (собачиха), Анастасия Сапожникова (Настя), Василий Седых (дембель), Евгений Крайнов (пацаненок), Алексей Зайцев (тракторист), Владимир Сычев (Ералаш), Анатолий Зобнин (Прикинутый), Дмитрий Мухамадеев (молодой дальнобойщик), Филипп Рыба (Кулибин), Нелли Уварова (девушка), Олег Семисынов (грузный мент)
Описание: Никаких законов. Никаких правил. Никого не жалко. Никто не прав. И если мы пока еще не сталкивались с этим в жизни, это не значит, что этого не существует. Скорее, это значит, что нам пока везло. По ночным улицам Москвы мчится черный "BMW", уходящий от погони. Цепь роковых событий с разборками и стрельбой поставила четырех героев — четырех друзей - вне закона. В жизни без правил им нет пути назад, и черный «бумер» — мощный и надежный - уносит их всё дальше от Москвы, в шальную и безжалостную глушь российских дорог…
Качество видео: DVDRip-AVC
Формат видео: MKV
Видео: 704x408@752х408 (1.85:1), 25 fps, ~2196 kbps
Аудио: 48 kHz, AC3 Dolby Digital, 6 ch, ~448.00 kbps

MediaInfo

Общее
Уникальный идентификатор : 192539667872071621896249832607501950990 (0x90D9CA8B0428B4EDAF3B13F65E96A00E)
Полное имя : I:\Раздачи\Бумер_2003-DVDRip-AVC.mkv
Формат : Matroska
Версия формата : Version 2
Размер файла : 2,18 Гбайт
Продолжительность : 1 ч. 49 м.
Общий поток : 2842 Кбит/сек
Дата кодирования : UTC 2014-01-07 19:35:21
Программа кодирования : mkvmerge v5.1.0 ('And so it goes') built on Nov 28 2011 23:58:28
Библиотека кодирования : libebml v1.2.3 + libmatroska v1.3.0
Видео
Идентификатор : 1
Формат : AVC
Формат/Информация : Advanced Video Codec
Профиль формата : High@L4.1
Параметр CABAC формата : Да
Параметр ReFrames формата : 16 кадров
Идентификатор кодека : V_MPEG4/ISO/AVC
Продолжительность : 1 ч. 49 м.
Битрейт : 2393 Кбит/сек
Ширина : 704 пикселя
Высота : 408 пикселей
Соотношение сторон : 1,85:1
Соотношение сторон в оригинале : 1,85:1
Режим частоты кадров : Постоянный
Частота кадров : 25,000 кадров/сек
Цветовое пространство : YUV
Субдискретизация насыщенности : 4:2:0
Битовая глубина : 8 бит
Тип развёртки : Прогрессивная
Бит/(Пиксели*Кадры) : 0.333
Размер потока : 1,79 Гбайт (82%)
Библиотека кодирования : x264 core 133 r2334 a3ac64b
Настройки программы : cabac=1 / ref=16 / deblock=1:-1:-1 / analyse=0x3:0x133 / me=umh / subme=11 / psy=1 / psy_rd=1.00:0.05 / mixed_ref=1 / me_range=24 / chroma_me=1 / trellis=2 / 8x8dct=1 / cqm=0 / deadzone=21,11 / fast_pskip=0 / chroma_qp_offset=-3 / threads=3 / lookahead_threads=1 / sliced_threads=0 / nr=0 / decimate=0 / interlaced=0 / bluray_compat=0 / constrained_intra=0 / bframes=16 / b_pyramid=2 / b_adapt=2 / b_bias=0 / direct=3 / weightb=1 / open_gop=0 / weightp=2 / keyint=250 / keyint_min=25 / scenecut=40 / intra_refresh=0 / rc_lookahead=60 / rc=2pass / mbtree=1 / bitrate=2393 / ratetol=1.0 / qcomp=0.65 / qpmin=0 / qpmax=39 / qpstep=4 / cplxblur=20.0 / qblur=0.5 / ip_ratio=1.35 / aq=1:1.00
Default : Да
Forced : Нет
Основные цвета : BT.601 PAL
Характеристики трансфера : BT.470 System B, BT.470 System G
Коэффициенты матрицы : BT.601
Аудио
Идентификатор : 2
Формат : AC-3
Формат/Информация : Audio Coding 3
Расширение режима : CM (complete main)
Параметр Endianness формата : Big
Идентификатор кодека : A_AC3
Продолжительность : 1 ч. 49 м.
Вид битрейта : Постоянный
Битрейт : 448 Кбит/сек
Каналы : 6 каналов
Расположение каналов : Front: L C R, Side: L R, LFE
Частота : 48,0 КГц
Битовая глубина : 16 бит
Метод сжатия : С потерями
Задержка видео : 9 с. 257 мс.
Размер потока : 352 Мбайт (16%)
Язык : Russian
Default : Да
Forced : Нет
Скачать

Скачать торрент!

Как скачивать? · Что такое торрент? · Рейтинг и ограничения

Сайт не распространяет и не хранит электронные версии произведений, а лишь предоставляет доступ к создаваемому пользователями каталогу ссылок на торрент-файлы, которые содержат только списки хеш-сумм

[Профиль] [ЛС]
Показать сообщения:    
Ответить на тему

Текущее время: Сегодня 06:07

Часовой пояс: GMT + 4



Вы не можете начинать темы
Вы не можете отвечать на сообщения
Вы не можете редактировать свои сообщения
Вы не можете удалять свои сообщения
Вы не можете голосовать в опросах
Вы не можете прикреплять файлы к сообщениям
Вы не можете скачивать файлы