Одноклассники.ru: НаCLICKай удачу (Павел Худяков) [2013, Мелодрама, комедия, WEB-DLRip]

Ответить на тему
 
Автор Сообщение

user ®

Стаж: 7 лет 7 месяцев

Сообщений: 20008

Пост Пост: #1 от 07-Янв-2014 14:10

[Цитировать]

Одноклассники.ru: НаCLICKай удачу
Жанр: Мелодрама, комедия
Год выпуска: 2013
Продолжительность: 01:35:42
Режиссёр: Павел Худяков
В ролях: Пётр Фёдоров, Фёдор Бондарчук, Корнелия Поляк, Сергей Друзьяк, Тимати, Снуп Догг, Сергей Никоненко, Александр Ревва, Ольга Тумайкина, Семён Стругачев
Описание: Круто, когда есть кнопка, на которую жмешь, и все становится по-твоему! Именно такая попала в руки молодому креативщику и тотальному неудачнику Леше. Теперь у него высокооплачиваемая работа, дорогая машина, стильный гардероб и, конечно, идеальная девушка. Достаточно одного клика! Просто надо знать, куда жать!
Сэмпл: http://sendfile.su/919142
Качество видео: WEB-DLRip
Формат видео: AVI
Видео: 704x304 (2.32:1), 25 fps, XviD build 50, 1649 kbps avg, 0.31 bit/pixel
Аудио: 48 kHz, AC3 Dolby Digital, 3/2 (L,C,R,l,r) + LFE ch, 384 kbps

MediaInfo

Odnoklassniki.ru.naklikai.udachu.2013.O.DVDRip.1400MB.avi
Format : AVI
Format/Info : Audio Video Interleave
File size : 1.37 GiB
Duration : 1h 35mn
Overall bit rate : 2 043 Kbps
Writing application : VirtualDubMod 1.5.10.2 (build 2540/release)
Writing library : VirtualDubMod build 2540/release
Video #0
ID : 0
Format : MPEG-4 Visual
Format profile : Advanced Simple@L5
Format settings, BVOP : 1
Format settings, QPel : No
Format settings, GMC : No warppoints
Format settings, Matrix : Default (MPEG)
Codec ID : XVID
Codec ID/Hint : XviD
Duration : 1h 35mn
Bit rate : 1 650 Kbps
Width : 704 pixels
Height : 304 pixels
Display aspect ratio : 2.35:1
Frame rate : 25.000 fps
Color space : YUV
Chroma subsampling : 4:2:0
Bit depth : 8 bits
Scan type : Progressive
Compression mode : Lossy
Bits/(Pixel*Frame) : 0.308
Stream size : 1.10 GiB (81%)
Writing library : XviD 1.2.1 (UTC 2008-12-04)
Audio #1
ID : 1
Format : AC-3
Format/Info : Audio Coding 3
Mode extension : CM (complete main)
Codec ID : 2000
Duration : 1h 35mn
Bit rate mode : Constant
Bit rate : 384 Kbps
Channel(s) : 6 channels
Channel positions : Front: L C R, Side: L R, LFE
Sampling rate : 48.0 KHz
Bit depth : 16 bits
Compression mode : Lossy
Stream size : 263 MiB (19%)
Alignment : Split accross interleaves
Interleave, duration : 40 ms (1.00 video frame)
Interleave, preload duration : 500 ms

Скриншот c названием фильма

Скриншоты

Скачать

Скачать торрент!

Как скачивать? · Что такое торрент? · Рейтинг и ограничения

Сайт не распространяет и не хранит электронные версии произведений, а лишь предоставляет доступ к создаваемому пользователями каталогу ссылок на торрент-файлы, которые содержат только списки хеш-сумм

[Профиль] [ЛС]
Показать сообщения:    
Ответить на тему

Текущее время: Сегодня 18:19

Часовой пояс: GMT + 4



Вы не можете начинать темы
Вы не можете отвечать на сообщения
Вы не можете редактировать свои сообщения
Вы не можете удалять свои сообщения
Вы не можете голосовать в опросах
Вы не можете прикреплять файлы к сообщениям
Вы не можете скачивать файлы