Ниндзя 2 / Ninja: Shadow of a Tear (Айзек Флорентайн / Isaac Florentine) [2013, Таиланд, США, боевик, триллер, криминал, BDRip 720p] DVO (Paradox) + Original (Eng) + Subs (Eng)

Ответить на тему
 
Автор Сообщение

user ®

Стаж: 7 лет 7 месяцев

Сообщений: 20008

Пост Пост: #1 от 07-Янв-2014 01:55

[Цитировать]

Ниндзя 2 / Ninja: Shadow of a Tear

-
-Страна: Таиланд, США
Студия: Swingin' Productions LLC
Жанр: боевик, триллер, криминал
Год выпуска: 2013
Продолжительность: 01:34:44--Перевод: Любительский (двухголосый закадровый) Студия "Paradox"
Cубтитры: английские SDH
Оригинальная аудиодорожка: английский--Режиссер: Айзек Флорентайн / Isaac Florentine
В ролях: Скотт Эдкинс, Витхая Пансрингарм, Кейн Косуги, Тим Ман, Чарли Рюдпоканон, Рон Смуренбург, Мика Хиджии, Сюн Сугата, Эрика Нагаминэ, Патрик Тэнг--Описание: Кейси Боумен, наконец, начал оседлую жизнь. Он в счастливом браке с Намико (которая беременна первенцем), живёт в Японии и преподаёт в додзё Кога. Однажды на Кейси, отправившегося за подарком для жены, нападает пара отморозков. Он не придаёт этому значения, считая всё обычным грабежом. Но когда той же ночью жестоко убивают Намико, мир Кейси рушится на части. Поражённый горем и пылающий жаждой мести, Кейси выслеживает двух бандитов, пытавшихся его ограбить, но те не могут предоставить ему ключи к разгадке убийства его жены. Поэтому Кейси отправляется в Таиланд, в додзё близкого друга. Горе и гнев берут над ним верх, и он «срывается» во время спарринга с учениками. Когда одного из учеников убивают так же, как и Намико, Кейси, наконец, находит улики, которые ему нужны для того, чтобы выследить убийцу своей жены и разгадать тайну, хранящуюся в глубине бирманских джунглей.--imdb | kinopoisk | Сэмпл--Тип релиза: BDRip 720p [Ninja: Shadow of a Tear 2013 720p BluRay DD5.1 x264-LolHD]
Контейнер: MKV
Видео: MPEG-4 AVC / 5343 kbps / 1280x720 / 23,976 fps / 16:9 / High Profile 4.1
Аудио 1: Russian AC3 / 5.1 / 48 kHz / 640 kbps / 16 bits |Студия "Paradox"|
Аудио 2: English AC3 / 5.1 / 48 kHz / 640 kbps / 16 bits |original|
Формат субтитров: softsub [SRT]

MediaInfo

Общее
Уникальный идентификатор                 : 250227035161964838393353351112725777049 (0xBC3FF9577F8A11D0AB34961EA7464A99)
Полное имя                               : G:\HD\Ниндзя 2.2013.BDRip.(720p).mkv
Формат                                   : Matroska
Версия формата                           : Version 2
Размер файла                             : 4,47 Гбайт
Продолжительность                        : 1 ч. 34 м.
Общий поток                              : 6757 Кбит/сек
Дата кодирования                         : UTC 2014-01-06 16:46:47
Программа кодирования                    : mkvmerge v5.8.0 ('No Sleep / Pillow') built on Sep  2 2012 15:37:04
Библиотека кодирования                   : libebml v1.2.3 + libmatroska v1.3.0
Attachment                               : Yes
Видео
Идентификатор                            : 1
Формат                                   : AVC
Формат/Информация                        : Advanced Video Codec
Профиль формата                          : High@L4.1
Параметр CABAC формата                   : Да
Параметр ReFrames формата                : 9 кадров
Идентификатор кодека                     : V_MPEG4/ISO/AVC
Продолжительность                        : 1 ч. 34 м.
Битрейт                                  : 5343 Кбит/сек
Ширина                                   : 1280 пикселей
Высота                                   : 720 пикселей
Соотношение сторон                       : 16:9
Режим частоты кадров                     : Постоянный
Частота кадров                           : 23,976 кадра/сек
Цветовое пространство                    : YUV
Субдискретизация насыщенности            : 4:2:0
Битовая глубина                          : 8 бит
Тип развёртки                            : Прогрессивная
Бит/(Пиксели*Кадры)                      : 0.242
Размер потока                            : 3,54 Гбайт (79%)
Заголовок                                : Ninja: Shadow of a Tear 2013 720p BluRay DD5.1 x264-LolHD
Библиотека кодирования                   : x264 core 133 r2334 a3ac64b
Настройки программы                      : cabac=1 / ref=9 / deblock=1:-3:-3 / analyse=0x3:0x133 / me=umh / subme=10 / psy=1 / psy_rd=1.00:0.00 / mixed_ref=1 / me_range=16 / chroma_me=1 / trellis=2 / 8x8dct=1 / cqm=0 / deadzone=21,11 / fast_pskip=0 / chroma_qp_offset=-2 / threads=6 / lookahead_threads=1 / sliced_threads=0 / nr=0 / decimate=1 / interlaced=0 / bluray_compat=0 / constrained_intra=0 / bframes=8 / b_pyramid=2 / b_adapt=2 / b_bias=0 / direct=3 / weightb=1 / open_gop=0 / weightp=2 / keyint=250 / keyint_min=23 / scenecut=40 / intra_refresh=0 / rc=crf / mbtree=0 / crf=15.8 / qcomp=0.75 / qpmin=0 / qpmax=69 / qpstep=4 / ip_ratio=1.40 / pb_ratio=1.30 / aq=1:0.90
Язык                                     : English
Default                                  : Да
Forced                                   : Нет
Аудио #1
Идентификатор                            : 2
Формат                                   : AC-3
Формат/Информация                        : Audio Coding 3
Расширение режима                        : CM (complete main)
Параметр Endianness формата              : Big
Идентификатор кодека                     : A_AC3
Продолжительность                        : 1 ч. 34 м.
Вид битрейта                             : Постоянный
Битрейт                                  : 640 Кбит/сек
Каналы                                   : 6 каналов
Расположение каналов                     : Front: L C R, Side: L R, LFE
Частота                                  : 48,0 КГц
Битовая глубина                          : 16 бит
Метод сжатия                             : С потерями
Размер потока                            : 434 Мбайт (9%)
Заголовок                                : DVO
Язык                                     : Russian
Default                                  : Да
Forced                                   : Нет
Аудио #2
Идентификатор                            : 3
Формат                                   : AC-3
Формат/Информация                        : Audio Coding 3
Расширение режима                        : CM (complete main)
Параметр Endianness формата              : Big
Идентификатор кодека                     : A_AC3
Продолжительность                        : 1 ч. 34 м.
Вид битрейта                             : Постоянный
Битрейт                                  : 640 Кбит/сек
Каналы                                   : 6 каналов
Расположение каналов                     : Front: L C R, Side: L R, LFE
Частота                                  : 48,0 КГц
Битовая глубина                          : 16 бит
Метод сжатия                             : С потерями
Размер потока                            : 434 Мбайт (9%)
Язык                                     : English
Default                                  : Нет
Forced                                   : Нет
Текст
Идентификатор                            : 4
Формат                                   : UTF-8
Идентификатор кодека                     : S_TEXT/UTF8
Идентификатор кодека/Информация          : UTF-8 Plain Text
Заголовок                                : SDH
Язык                                     : English
Default                                  : Нет
Forced                                   : Нет
Меню
00:00:00.000                             : :Chapter 01
00:09:55.678                             : :Chapter 02
00:14:57.438                             : :Chapter 03
00:23:10.138                             : :Chapter 04
00:31:01.359                             : :Chapter 05
00:40:25.172                             : :Chapter 06
00:50:03.667                             : :Chapter 07
01:00:27.332                             : :Chapter 08
01:06:58.431                             : :Chapter 09
01:14:39.349                             : :Chapter 10
01:17:03.994                             : :Chapter 11
01:29:38.289                             : :Chapter 12

Скриншоты


Дополнительно

Дорожка №1 получена наложением чистого голоса на центр декодированного TrueHD.

Ninja: Shadow of a Tear 2013 720p BluRay DD5.1 x264-LolHD

Ninja.Shadow.of.a.Tear.2013.720p.BluRay.DD5.1.x264-LolHD
iMDB iNFO
iMDB.LiNK.....: http://www.imdb.com/title/tt2458106/
iMDB.RATiNG...: 6,2/10 from 1.817 users
GENRE.........: Action | Crime | Thriller
MEDiA iNFO
RELEASE NAME..: Ninja.Shadow.of.a.Tear.2013.720p.BluRay.DD5.1.x264-LolHD
RELEASE SiZE..: 4.05 GiB
RUNTIME.......: 1h 34mn
ViDEO CODEC...: MPEG-4/AVC, CRF, High@L4.1
FRAMERATE.....: 23.976 fps
BiTRATE.......: 5 358 Kbps
RESOLUTiON....: 1280 x 720
AUDiO.........: English AC3 5.1 @ 640 Kbps
CHAPTERS......: Included
SOURCE........: Ninja_ Shadow of a Tear 2013 1080p Blu-ray AVC TrueHD-JoyHD
SUBTiTLES.....: English
RELEASE iNFO
THEATER DATE..: 27/12/2013
RELEASE DATE..: 04/01/2014
ENCODER.......: tythegunner@LolHD
x264 iNFO
x264 [info]: frame I:1176  Avg QP:12.29  size:127801
x264 [info]: frame P:33451 Avg QP:13.82  size: 55299
x264 [info]: frame B:101645 Avg QP:15.98  size: 18589
x264 [info]: consecutive B-frames:  2.9%  4.2%  8.8% 42.1% 11.4% 18.8%  3.8%  6.9%  1.1%
encoded 136272 frames, 3.75 fps, 5474.77 kb/s
Скачать

Скачать торрент!

Как скачивать? · Что такое торрент? · Рейтинг и ограничения

Сайт не распространяет и не хранит электронные версии произведений, а лишь предоставляет доступ к создаваемому пользователями каталогу ссылок на торрент-файлы, которые содержат только списки хеш-сумм

[Профиль] [ЛС]
Показать сообщения:    
Ответить на тему

Текущее время: Сегодня 23:19

Часовой пояс: GMT + 4



Вы не можете начинать темы
Вы не можете отвечать на сообщения
Вы не можете редактировать свои сообщения
Вы не можете удалять свои сообщения
Вы не можете голосовать в опросах
Вы не можете прикреплять файлы к сообщениям
Вы не можете скачивать файлы