К бою готовы / Ready to Rumble (Брайан Роббинс / Brian Robbins) [2000, США, комедия, спорт, Web-DL 1080p] Dub + Original (Eng)

Ответить на тему
 
Автор Сообщение

user ®

Стаж: 7 лет 7 месяцев

Сообщений: 20008

Пост Пост: #1 от 06-Янв-2014 22:45

[Цитировать]

К бою готовы / Ready to Rumble Страна: США
Жанр: комедия, спорт
Год выпуска: 2000
Продолжительность: 01:46:19
Перевод: Профессиональный (дублированный) Мост-Видео
Cубтитры: нет
Оригинальная аудиодорожка: английский
Режиссер: Брайан Роббинс / Brian Robbins
В ролях: Дэвид Аркетт, Скотт Каан, Оливер Платт, Билл Голдберг, Роуз МакГоун, Даллас Пейдж, Ричард Лайнбэк, Крис Оуэн, Стив Борден, Джо Пантольяно
Описание:
Что такое рестлинг — спор настоящих мужчин или шоу-имитация кровавых схваток? Для двоих друзей из небольшого американского городка это — почти все. Их звезда — непобедимый король рестлинга Джимми Кинг, размазавший по рингу не одного противника.
И вдруг, из-за грязных интриг продюсера этот любимец публики оказывается посрамленным! Двое истовых фанатов не в силах пережить этот удар. Они не готовы считаться с жестокой реальностью, они готовы к бою!
- ||-Тип релиза: Web-DL 1080p

Контейнер: MKV
Видео: AVC (x264), 1906x1076 (16:9) at 23,976 fps, 5102 Кbps, 0.104 bpp
Аудио 1: AC3; 192 Kbps; CBR; 2 ch; 48 khz | Дубляж |
Аудио 2: AC3; 384 Kbps; CBR; 6 ch; 48 khz | Английский |

Скриншоты || x264 Info || MediaInfo || Notes

В Web-DL по сравнению со скринером или двдрипом - вырезан один 10 секундный фрагмент, видимо цензура. так что не в коем случае - не поглошать старые раздачи - рипом с этой

MediaInfo

Общее
Уникальный идентификатор                 : 203101449071178788927936073480552441583 (0x98CBEA8F74B1396DAB717615ED99E6EF)
Полное имя                               : К бою готовы.2000.D.1080p.WEB-DL.x264.mkv
Формат                                   : Matroska
Версия формата                           : Version 4 / Version 2
Размер файла                             : 4,30 Гбайт
Продолжительность                        : 1 ч. 46 м.
Общий поток                              : 5794 Кбит/сек
Название фильма                          : Ready To Rumble [1080p] [2000] DUB
Дата кодирования                         : UTC 2013-12-28 00:48:59
Программа кодирования                    : mkvmerge v6.6.0 ('The Edge Of The In Between') built on Dec  1 2013 17:55:00
Библиотека кодирования                   : libebml v1.3.0 + libmatroska v1.4.1
Видео
Идентификатор                            : 1
Формат                                   : AVC
Формат/Информация                        : Advanced Video Codec
Профиль формата                          : High@L4.0
Параметр CABAC формата                   : Да
Параметр ReFrames формата                : 4 кадра
Идентификатор кодека                     : V_MPEG4/ISO/AVC
Продолжительность                        : 1 ч. 46 м.
Битрейт                                  : 5102 Кбит/сек
Ширина                                   : 1906 пикселей
Высота                                   : 1076 пикселей
Соотношение сторон                       : 16:9
Режим частоты кадров                     : Постоянный
Частота кадров                           : 23,976 кадра/сек
Цветовое пространство                    : YUV
Субдискретизация насыщенности            : 4:2:0
Битовая глубина                          : 8 бит
Тип развёртки                            : Прогрессивная
Бит/(Пиксели*Кадры)                      : 0.104
Размер потока                            : 3,79 Гбайт (88%)
Заголовок                                : profile.php?mode=viewprofile&u=22488948
Язык                                     : English
Default                                  : Да
Forced                                   : Нет
Основные цвета                           : BT.709
Характеристики трансфера                 : BT.709
Коэффициенты матрицы                     : BT.709
Аудио #1
Идентификатор                            : 2
Формат                                   : AC-3
Формат/Информация                        : Audio Coding 3
Расширение режима                        : CM (complete main)
Параметр Endianness формата              : Big
Идентификатор кодека                     : A_AC3
Продолжительность                        : 1 ч. 46 м.
Вид битрейта                             : Постоянный
Битрейт                                  : 192 Кбит/сек
Каналы                                   : 2 канала
Расположение каналов                     : Front: L R
Частота                                  : 48,0 КГц
Битовая глубина                          : 16 бит
Метод сжатия                             : С потерями
Размер потока                            : 146 Мбайт (3%)
Заголовок                                : DUB
Язык                                     : Russian
Default                                  : Да
Forced                                   : Нет
Аудио #2
Идентификатор                            : 3
Формат                                   : AC-3
Формат/Информация                        : Audio Coding 3
Расширение режима                        : CM (complete main)
Параметр Endianness формата              : Big
Идентификатор кодека                     : A_AC3
Продолжительность                        : 1 ч. 46 м.
Вид битрейта                             : Постоянный
Битрейт                                  : 384 Кбит/сек
Каналы                                   : 6 каналов
Расположение каналов                     : Front: L C R, Side: L R, LFE
Частота                                  : 48,0 КГц
Битовая глубина                          : 16 бит
Метод сжатия                             : С потерями
Размер потока                            : 292 Мбайт (7%)
Язык                                     : English
Default                                  : Нет
Forced                                   : Нет
Скачать

Скачать торрент!

Как скачивать? · Что такое торрент? · Рейтинг и ограничения

Сайт не распространяет и не хранит электронные версии произведений, а лишь предоставляет доступ к создаваемому пользователями каталогу ссылок на торрент-файлы, которые содержат только списки хеш-сумм

[Профиль] [ЛС]
Показать сообщения:    
Ответить на тему

Текущее время: Сегодня 13:53

Часовой пояс: GMT + 4



Вы не можете начинать темы
Вы не можете отвечать на сообщения
Вы не можете редактировать свои сообщения
Вы не можете удалять свои сообщения
Вы не можете голосовать в опросах
Вы не можете прикреплять файлы к сообщениям
Вы не можете скачивать файлы