Телекинез / Carrie (Кимберли Пирс / Kimberly Peirce) [2013, США, триллер, ужасы, драма, BDRip 720p] Dub (звук с TS) + Sub Eng + Original Eng

Ответить на тему
 
Автор Сообщение

user ®

Стаж: 7 лет 7 месяцев

Сообщений: 20008

Пост Пост: #1 от 06-Янв-2014 22:45

[Цитировать]

Телекинез / Carrie Страна: США
Жанр: триллер, ужасы, драма
Год выпуска: 2013
Продолжительность: 01:40:56
Перевод: Профессиональный (дублированный) звук с TS
Cубтитры: английские
Оригинальная аудиодорожка: английский
Режиссер: Кимберли Пирс / Kimberly Peirce
В ролях: Хлоя Грейс Морец (Carrie White), Джулианна Мур (Margaret White), Джуди Грир (Ms. Desjardin), Портия Даблдэй (Chris Hargensen), Габриэлла Уайлд (Sue Snell), Алекс Расселл (Billy Nolan), Зои Белкин (Tina), Энсел Эльгорт (Tommy Ross), Саманта Вайнштейн (Heather), Карисса Стрэйн (Nicki), Кэти Стрэйн (Lizzy), Бэрри Шебака Хенли (Principal Morton)
Описание: Невзрачная старшеклассница по имени Кэрри с рождения обладает способностями телекинеза. Давление со стороны фанатично религиозной мамочки и постоянные издевки сверстников лишь способствует развитию ее сверхъестественных способностей. На выпускном одноклассники решают жестоко подшутить над ней, что приводит к фатальным последствиям.
Сэмпл: http://multi-up.com/937712
Качество видео: BDRip 720p
Формат: MKV
Видео: AVC, 1280x544 (2,35:1), 23,976 кадра/сек, 7711 Кбит/сек
Аудио: AC3, 48,0 КГц, 6 каналов, 224 Кбит/сек
Аудио: AC3, 48,0 КГц, 6 каналов, 448 Кбит/сек

MediaInfo

Формат : Matroska
Версия формата : Version 4 / Version 2
Размер файла : 5,81 Гбайт
Продолжительность : 1 ч. 40 м.
Общий поток : 8242 Кбит/сек
Название фильма : CARRIE.2013.BDRip.720p.RED.1.0
Дата кодирования : UTC 2014-01-06 12:49:59
Программа кодирования : mkvmerge v6.5.0 ('Isn't she lovely') built on Oct 20 2013 12:50:05
Библиотека кодирования : libebml v1.3.0 + libmatroska v1.4.1
Видео
Идентификатор : 1
Формат : AVC
Формат/Информация : Advanced Video Codec
Профиль формата : High@L4.1
Параметр CABAC формата : Да
Параметр ReFrames формата : 5 кадров
Идентификатор кодека : V_MPEG4/ISO/AVC
Продолжительность : 1 ч. 40 м.
Битрейт : 7711 Кбит/сек
Ширина : 1280 пикселей
Высота : 544 пикселя
Соотношение сторон : 2,35:1
Режим частоты кадров : Постоянный
Частота кадров : 23,976 кадра/сек
Цветовое пространство : YUV
Субдискретизация насыщенности : 4:2:0
Битовая глубина : 8 бит
Тип развёртки : Прогрессивная
Бит/(Пиксели*Кадры) : 0.462
Размер потока : 5,22 Гбайт (90%)
Заголовок : Carrie (2013) BDRip 720p
Библиотека кодирования : x264 core 140 r2377 1ca7bb9
Настройки программы : cabac=1 / ref=5 / deblock=1:-3:-3 / analyse=0x3:0x113 / me=umh / subme=8 / psy=1 / psy_rd=1.00:0.00 / mixed_ref=1 / me_range=16 / chroma_me=1 / trellis=2 / 8x8dct=1 / cqm=0 / deadzone=21,11 / fast_pskip=1 / chroma_qp_offset=-2 / threads=16 / lookahead_threads=2 / sliced_threads=0 / nr=0 / decimate=1 / interlaced=0 / bluray_compat=0 / constrained_intra=0 / bframes=3 / b_pyramid=2 / b_adapt=2 / b_bias=0 / direct=3 / weightb=1 / open_gop=0 / weightp=2 / keyint=240 / keyint_min=23 / scenecut=40 / intra_refresh=0 / rc_lookahead=50 / rc=abr / mbtree=1 / bitrate=7711 / ratetol=1.0 / qcomp=0.60 / qpmin=0 / qpmax=69 / qpstep=4 / ip_ratio=1.40 / aq=2:1.00
Default : Да
Forced : Нет
Аудио #1
Идентификатор : 2
Формат : AC-3
Формат/Информация : Audio Coding 3
Расширение режима : CM (complete main)
Параметр Endianness формата : Big
Идентификатор кодека : A_AC3
Продолжительность : 1 ч. 40 м.
Вид битрейта : Постоянный
Битрейт : 224 Кбит/сек
Каналы : 6 каналов
Расположение каналов : Front: L C R, Side: L R, LFE
Частота : 48,0 КГц
Битовая глубина : 16 бит
Метод сжатия : С потерями
Размер потока : 162 Мбайт (3%)
Язык : Russian
Default : Да
Forced : Да
Аудио #2
Идентификатор : 3
Формат : AC-3
Формат/Информация : Audio Coding 3
Расширение режима : CM (complete main)
Параметр Endianness формата : Big
Идентификатор кодека : A_AC3
Продолжительность : 1 ч. 40 м.
Вид битрейта : Постоянный
Битрейт : 448 Кбит/сек
Каналы : 6 каналов
Расположение каналов : Front: L C R, Side: L R, LFE
Частота : 48,0 КГц
Битовая глубина : 16 бит
Метод сжатия : С потерями
Размер потока : 323 Мбайт (5%)
Язык : English
Default : Нет
Forced : Нет
Текст
Идентификатор : 4
Формат : UTF-8
Идентификатор кодека : S_TEXT/UTF8
Идентификатор кодека/Информация : UTF-8 Plain Text
Заголовок : English
Язык : English
Default : Да
Forced : Нет
Меню
00:00:00.000 : en:00:00:00.000
00:04:14.546 : en:00:04:14.546
00:06:37.856 : en:00:06:37.856
00:10:07.649 : en:00:10:07.649
00:12:03.681 : en:00:12:03.681
00:14:46.177 : en:00:14:46.177
00:18:50.463 : en:00:18:50.463
00:23:15.060 : en:00:23:15.060
00:26:51.401 : en:00:26:51.401
00:30:50.974 : en:00:30:50.974
00:32:27.863 : en:00:32:27.863
00:36:18.093 : en:00:36:18.093
00:38:20.340 : en:00:38:20.340
00:41:47.755 : en:00:41:47.755
00:46:22.196 : en:00:46:22.196
00:51:01.850 : en:00:51:01.850
00:53:09.853 : en:00:53:09.853
00:55:47.678 : en:00:55:47.678
01:00:52.065 : en:01:00:52.065
01:04:02.338 : en:01:04:02.338
01:07:03.311 : en:01:07:03.311
01:09:38.383 : en:01:09:38.383

Скриншоты

Скачать

Скачать торрент!

Как скачивать? · Что такое торрент? · Рейтинг и ограничения

Сайт не распространяет и не хранит электронные версии произведений, а лишь предоставляет доступ к создаваемому пользователями каталогу ссылок на торрент-файлы, которые содержат только списки хеш-сумм

[Профиль] [ЛС]
Показать сообщения:    
Ответить на тему

Текущее время: Сегодня 18:11

Часовой пояс: GMT + 4



Вы не можете начинать темы
Вы не можете отвечать на сообщения
Вы не можете редактировать свои сообщения
Вы не можете удалять свои сообщения
Вы не можете голосовать в опросах
Вы не можете прикреплять файлы к сообщениям
Вы не можете скачивать файлы