Скуби-Ду и меч самурая / Scooby-Doo! and the Samurai Sword (Кристофер Беркли / Christopher Berkeley) [2009, мультфильм, детский, BDRip-AVC] Dub + MVO + Sub (rus, eng, ukr)

Ответить на тему
 
Автор Сообщение

user ®

Стаж: 13 лет

Сообщений: 15041

Пост Пост: #1 от 06-Янв-2014 19:35

[Цитировать]

Скуби-Ду и меч самурая / Scooby-Doo! and the Samurai Sword- Страна: США
Студия: Warner Bros. Animation, Warner Brothers, Warner Home Video
Жанр: мультфильм, детский
Продолжительность: 01:14:51
Год выпуска: 2009
Перевод: Профессиональный (дублированный) R5
Перевод 2: Профессиональный (многоголосый закадровый)
Русские субтитры: есть
Режиссёр: Кристофер Беркли / Christopher Berkeley
Роли озвучивали: Фрэнк Уэлкер (Scooby-Doo / Fred, озвучка), Кэйси Касэм (Shaggy, озвучка), Минди Кон (Velma, озвучка), Грэй ДеЛисл (Daphne, озвучка), Келли Ху (Miyumi / Miss Mirimoto, озвучка), Кевин Майкл Ричардсон (Sojo / The Black Samurai, озвучка), Саб Симоно (Mr. Takagawa, озвучка), Джордж Такей (Old Man Samurai, озвучка), Гедде Ватанабе (Kenji, озвучка), Кион Янг (Matsuhiro, озвучка), Брайан Кокс (Green Dragon, озвучка)
Описание: Скуби Ду и Меч Самурая и их тайная команда путешествуют по всему миру, чтобы найти какой ни будь клад, делая круги по Азии и Европы чтобы разобраться в древних загадках. 0ни соревнуются против сильного Черного Самурая и его Армии приведений чтобы попытаться достать Меч Судьбы, меч удостоен неземных сил. По дороге Скуби Ду и Шагги встречают Мастера Мечей который учит их Бошидо, путем самурая. Их способности быстро придут в действие против Нинзей Роботов. И в конце, наши измотанные герои находят то, что Бошидо это лояльность, честь и храбрость, что держит ключ к настоящей тайне...
Семпл
Качество: BDRip-AVC
Формат: MKV
Видео: MPEG-4 AVC, 2099 Кбит/с, 1024x576
Аудио: Русский: 48 kHz, AC3 Dolby Digital, 2/0 (L,R) ch, ~192 kbps |Dub|
Аудио 2: Русский: 48 kHz, AC3 Dolby Digital, 3/2 (L,C,R,l,r) + LFE ch, ~384 kbps |MVO|
Субтитры: Русские, украинские, английские

MediaInfo

ОбщееУникальный идентификатор : 188308640894547679355744881631240243615 (0x8DAAECCEAC141113905C72B172D5C99F)Полное имя : C:\Users\к\Desktop\фильмы\Skubi-Du.i.mech.samuraja.2009.x264.BDRip.(AVC).mkvФормат : MatroskaВерсия формата : Version 4 / Version 2Размер файла : 1,40 ГбайтПродолжительность : 1 ч. 14 м.Общий поток : 2676 Кбит/секНазвание фильма : Skubi-Du.i.mech.samuraja.2009.x264.BDRip.(AVC).ExKinoRayДата кодирования : UTC 2014-01-06 13:43:53Программа кодирования : mkvmerge v6.3.0 ('You can't stop me!') built on Jun 28 2013 20:09:41Библиотека кодирования : libebml v1.3.0 + libmatroska v1.4.0
ВидеоИдентификатор : 1Формат : AVCФормат/Информация : Advanced Video CodecПрофиль формата : High@L4.1Параметр CABAC формата : ДаПараметр ReFrames формата : 8 кадровИдентификатор кодека : V_MPEG4/ISO/AVCПродолжительность : 1 ч. 14 м.Битрейт : 2099 Кбит/секШирина : 1024 пикселяВысота : 576 пикселейСоотношение сторон : 16:9Режим частоты кадров : ПостоянныйЧастота кадров : 23,976 кадра/секЦветовое пространство : YUVСубдискретизация насыщенности : 4:2:0Битовая глубина : 8 битТип развёртки : ПрогрессивнаяБит/(Пиксели*Кадры) : 0.148Размер потока : 1,07 Гбайт (76%)Заголовок : Rip by Enigma-Vladislav71Библиотека кодирования : x264 core 129 r2245 bc13772Настройки программы : cabac=1 / ref=8 / deblock=1:-2:-2 / analyse=0x3:0x133 / me=umh / subme=10 / psy=1 / psy_rd=1.00:0.00 / mixed_ref=1 / me_range=32 / chroma_me=1 / trellis=2 / 8x8dct=1 / cqm=0 / deadzone=21,11 / fast_pskip=0 / chroma_qp_offset=-2 / threads=3 / lookahead_threads=1 / sliced_threads=0 / nr=0 / decimate=0 / interlaced=0 / bluray_compat=0 / constrained_intra=0 / bframes=8 / b_pyramid=2 / b_adapt=2 / b_bias=0 / direct=3 / weightb=1 / open_gop=0 / weightp=2 / keyint=240 / keyint_min=23 / scenecut=40 / intra_refresh=0 / rc=2pass / mbtree=0 / bitrate=2099 / ratetol=1.0 / qcomp=0.60 / qpmin=10 / qpmax=51 / qpstep=4 / cplxblur=20.0 / qblur=0.5 / ip_ratio=1.40 / pb_ratio=1.30 / aq=2:1.00Язык : EnglishDefault : НетForced : Нет
Аудио #1Идентификатор : 2Формат : AC-3Формат/Информация : Audio Coding 3Расширение режима : CM (complete main)Параметр Endianness формата : BigИдентификатор кодека : A_AC3Продолжительность : 1 ч. 14 м.Вид битрейта : ПостоянныйБитрейт : 192 Кбит/секКаналы : 2 каналаРасположение каналов : Front: L RЧастота : 48,0 КГцБитовая глубина : 16 битМетод сжатия : С потерямиРазмер потока : 103 Мбайт (7%)Заголовок : ДублированныйЯзык : RussianDefault : ДаForced : Нет
Аудио #2Идентификатор : 3Формат : AC-3Формат/Информация : Audio Coding 3Расширение режима : CM (complete main)Параметр Endianness формата : BigИдентификатор кодека : A_AC3Продолжительность : 1 ч. 14 м.Вид битрейта : ПостоянныйБитрейт : 384 Кбит/секКаналы : 6 каналовРасположение каналов : Front: L C R, Side: L R, LFEЧастота : 48,0 КГцБитовая глубина : 16 битМетод сжатия : С потерямиРазмер потока : 206 Мбайт (14%)Заголовок : Профессиональный многоголосыйЯзык : RussianDefault : НетForced : Нет
Текст #1Идентификатор : 4Формат : UTF-8Идентификатор кодека : S_TEXT/UTF8Идентификатор кодека/Информация : UTF-8 Plain TextЯзык : RussianDefault : НетForced : Нет
Текст #2Идентификатор : 5Формат : UTF-8Идентификатор кодека : S_TEXT/UTF8Идентификатор кодека/Информация : UTF-8 Plain TextЗаголовок : украинскийDefault : НетForced : Нет
Текст #3Идентификатор : 6Формат : UTF-8Идентификатор кодека : S_TEXT/UTF8Идентификатор кодека/Информация : UTF-8 Plain TextЯзык : EnglishDefault : ДаForced : Нет

Скриншоты


Скачать

Скачать торрент! Скуби-Ду и меч самурая / Scooby-Doo! and the Samurai Sword (Кристофер Беркли / Christopher Berkeley) [2009, мультфильм, детский, BDRip-AVC] Dub + MVO + Sub (rus, eng, ukr)

Как скачивать? · Что такое торрент? · Рейтинг и ограничения

Сайт не распространяет и не хранит электронные версии произведений, а лишь предоставляет доступ к создаваемому пользователями каталогу ссылок на торрент-файлы, которые содержат только списки хеш-сумм

[Профиль] [ЛС]
Показать сообщения:    
Ответить на тему

Текущее время: Сегодня 15:51

Часовой пояс: GMT + 4



Вы не можете начинать темы
Вы не можете отвечать на сообщения
Вы не можете редактировать свои сообщения
Вы не можете удалять свои сообщения
Вы не можете голосовать в опросах
Вы не можете прикреплять файлы к сообщениям
Вы не можете скачивать файлы