Дилли Далли в стране Перпендикула / Dilli Dalli Perpendikula valstiba (Розе Стиебра / Rоze Stiebrа) [1974, мультфильм, VHSRip]

Ответить на тему
 
Автор Сообщение

user ®

Стаж: 7 лет 7 месяцев

Сообщений: 20008

Пост Пост: #1 от 06-Янв-2014 19:35

[Цитировать]

Дилли Далли в стране Перпендикула / Dilli Dalli Perpendikula valstiba
Страна: СССР (Латвийская республика)
Жанр: мультфильм
Продолжительность: 00:08:59
Год выпуска: 1974
Перевод: Не требуется
Русские субтитры: нет
Режиссёр: Розе Стиебра / Rоze Stiebrа
Описание: Юный волшебник Дилли Далли превращает на детской площадке игрушечных зверят в живых, и те отправляются гулять. Потом приходят дети и не находят своих игрушек. Дилли Далли отправляется на поиски зверят, и попадает в страну, где хозяйничает Перпендикул – мрачный тип, превращающий всё живое в квадраты и прямоугольники…
Доп. информация: Про Дилли Далли есть ещё два мультфильма:
"Дилли Далли в Минку-парке" (1975)
"Дилли Далли в солнечном саду" (1976)
Качество: VHSRip
Формат: AVI
Видео: 1347 kbps, 720х544 (4:3), 25.000 fps, MPEG-4 Visual (XviD)
Аудио: 160 kbps, 48.0 kHz, 2 channels, MPEG Audio (MP3)
Субтитры: отсутствуют

Подробные технические данные

GeneralComplete name : Дилли Далли в стране Перпендикула (1974).aviFormat : AVIFormat/Info : Audio Video InterleaveFile size : 97.8 MiBDuration : 8mn 59sOverall bit rate : 1 520 KbpsWriting application : Lavf54.63.104
VideoID : 0Format : MPEG-4 VisualFormat profile : Simple@L3Format settings, BVOP : NoFormat settings, QPel : NoFormat settings, GMC : No warppointsFormat settings, Matrix : Default (H.263)Codec ID : XVIDCodec ID/Hint : XviDDuration : 8mn 59sBit rate : 1 347 KbpsWidth : 720 pixelsHeight : 544 pixelsDisplay aspect ratio : 4:3Frame rate : 25.000 fpsColor space : YUVChroma subsampling : 4:2:0Bit depth : 8 bitsScan type : ProgressiveCompression mode : LossyBits/(Pixel*Frame) : 0.138Stream size : 86.6 MiB (89%)Writing library : XviD 1.2.1 (UTC 2008-12-04)
AudioID : 1Format : MPEG AudioFormat version : Version 1Format profile : Layer 3Mode : Joint stereoMode extension : MS StereoCodec ID : 55Codec ID/Hint : MP3Duration : 8mn 59sBit rate mode : ConstantBit rate : 160 KbpsChannel(s) : 2 channelsSampling rate : 48.0 KHzCompression mode : LossyStream size : 10.3 MiB (11%)Alignment : Aligned on interleavesInterleave, duration : 24 ms (0.60 video frame)Writing library : LAME3.99.5

Скриншоты

Скачать

Скачать торрент!

Как скачивать? · Что такое торрент? · Рейтинг и ограничения

Сайт не распространяет и не хранит электронные версии произведений, а лишь предоставляет доступ к создаваемому пользователями каталогу ссылок на торрент-файлы, которые содержат только списки хеш-сумм

[Профиль] [ЛС]
Показать сообщения:    
Ответить на тему

Текущее время: Сегодня 20:39

Часовой пояс: GMT + 4



Вы не можете начинать темы
Вы не можете отвечать на сообщения
Вы не можете редактировать свои сообщения
Вы не можете удалять свои сообщения
Вы не можете голосовать в опросах
Вы не можете прикреплять файлы к сообщениям
Вы не можете скачивать файлы