Девушки-камикадзе / Kamikaze Girls / Shimotsuma monogatari (Накасима Тэцуя / Nakashima Tetsuya) [2004, Япония, Комедия, DVDRip] VO (aleksei80)

Ответить на тему
 
Автор Сообщение

user ®

Стаж: 11 лет

Сообщений: 15151

Пост Пост: #1 от 06-Янв-2014 19:35

[Цитировать]

Девушки-камикадзе / Kamikaze Girls / Shimotsuma monogatari
Страна: Япония
Жанр: Комедия
Год выпуска: 2004
Продолжительность: 01:42:14
Перевод: Одноголосый закадровый aleksei80
Cубтитры: нет
Режиссер: Накасима Тэцуя / Nakashima Tetsuya
В ролях: Kyoko Fukada - Momoko Ryugasaki
Anna Tsuchiya - Ichigo Shirayuri
Kirin Kiki - Momoko's Grandmother
Sadao Abe - Ryuji
Yoshinori Okada - 'Baby The Stars Shine Bright' Owner
Hiroyuki Miyasako - Momoko's Father
Ryoko Shinohara - Momoko's Mother
Eiko Koike - Akimi
Shin Yazawa - Miko
Hirotaro Honda - Yakuza Boss
YosiYosi Arakawa - Grocery Store Manager
Katsuhisa Namase - Pachinko Parlor Manager
Mayuko Fukuda - Momoko (young)
Yuichi Kimura - Yakuza
Описание: Это история о двух вроде бы совершенно разных девушках. Первая, Момоко Рюгасаки (Kyoko Fukada) - несмотря на сложившиеся обстоятельства в жизни (родители развелись, отец - неудачник), ничто не помешало ей выбрать путь лолиты. А другая, Ичиго (Ичико) Шираюри (Anna Tsuchiya) - член женской банды байкеров. Что будет, когда эти две разные девушки встретятся? А уж тем более - станут друзьями.
Сэмпл: http://multi-up.com/937499
Качество видео: DVDRip
Формат видео: AVI
Видео: xvid, 720x400, 16:9, 23.976 fps, 1 662 Kbps
Аудио: MP3, 44.1 KHz, 192 Kbps, 2 channels

MediaInfo

General
Complete name : C:\Users\котэ\Downloads\раздача на рутрекере\девушки камикадзе.avi
Format : AVI
Format/Info : Audio Video Interleave
Format profile : OpenDML
File size : 1.33 GiB
Duration : 1h 42mn
Overall bit rate : 1 868 Kbps
Writing application : Lavf51.12.1
Video
ID : 0
Format : xvid
Codec ID : xvid
Duration : 1h 42mn
Bit rate : 1 662 Kbps
Width : 720 pixels
Height : 400 pixels
Display aspect ratio : 16:9
Frame rate : 23.976 fps
Bits/(Pixel*Frame) : 0.241
Stream size : 1.19 GiB (89%)
Audio
ID : 1
Format : MPEG Audio
Format version : Version 1
Format profile : Layer 3
Mode : Joint stereo
Mode extension : MS Stereo
Codec ID : 55
Codec ID/Hint : MP3
Duration : 1h 42mn
Bit rate mode : Constant
Bit rate : 192 Kbps
Channel(s) : 2 channels
Sampling rate : 44.1 KHz
Compression mode : Lossy
Stream size : 37.3 MiB (3%)
Alignment : Aligned on interleaves
Interleave, duration : 98 ms (2.35 video frames)
Interleave, preload duration : 26 ms
Writing library : LAME3.97

Скриншот c названием фильма

Скачать

Скачать торрент! Девушки-камикадзе / Kamikaze Girls / Shimotsuma monogatari (Накасима Тэцуя / Nakashima Tetsuya) [2004, Япония, Комедия, DVDRip] VO (aleksei80)

Как скачивать? · Что такое торрент? · Рейтинг и ограничения

Сайт не распространяет и не хранит электронные версии произведений, а лишь предоставляет доступ к создаваемому пользователями каталогу ссылок на торрент-файлы, которые содержат только списки хеш-сумм

[Профиль] [ЛС]
Показать сообщения:    
Ответить на тему

Текущее время: Сегодня 17:29

Часовой пояс: GMT + 4



Вы не можете начинать темы
Вы не можете отвечать на сообщения
Вы не можете редактировать свои сообщения
Вы не можете удалять свои сообщения
Вы не можете голосовать в опросах
Вы не можете прикреплять файлы к сообщениям
Вы не можете скачивать файлы