Дорога, дорога домой / The Way Way Back (Нат Факсон / Nat Faxon, Джим Рэш / Jim Rash) [2013, США, драма, комедия, BDRip 1080p] MVO + VO (Andi) + Sub Rus,Eng + Original Eng

Ответить на тему
 
Автор Сообщение

user ®

Стаж: 7 лет 7 месяцев

Сообщений: 20008

Пост Пост: #1 от 06-Янв-2014 19:35

[Цитировать]

Дорога, дорога домой / The Way Way Back Страна: США
Студия: Odd Lot Entertainment, Sycamore Pictures, The Walsh Company, What Just Happened Productions
Жанр: драма, комедия
Год выпуска: 2013
Продолжительность: 01:43:28
Перевод 1: Любительский (многоголосый закадровый) И. Грачева, А. Шухарт, М. Максимов
Перевод 2: Одноголосый (закадровый) Andi
Cубтитры: русские,английские
Оригинальная аудиодорожка: английский
Режиссер: Нат Факсон / Nat Faxon, Джим Рэш / Jim Rash
В ролях: Стив Карелл, Тони Коллетт, Эллисон Джэнни, Анна-София Робб, Сэм Рокуэлл, Майя Рудольф, Лайам Джеймс, Роб Кордри, Аманда Пит, Ривер Агирр
Описание: История подростка, который нашел в себе силы противостоять жестокому отчиму и снова обрел контакт с матерью. И все это благодаря дружбе, завязавшейся у героя однажды летом.

Тип релиза: BDRip 1080p[NTb]
Контейнер: MKV
Видео: AVC, 1920x1040,21200 kbps, 23.976 fps
Аудио 1: Russian: 48 kHz, AC3, 3/2 (L,C,R,l,r) + LFE ch, ~384.00 kbps|MVO|
Аудио 2: Russian: 48 kHz, DTS, 3/2 (L,C,R,l,r) + LFE ch, ~1536 kbps avg |Andi|
Аудио 3: English: 48 kHz, DTS, 3/2 (L,C,R,l,r) + LFE ch, ~1536 kbps avg |Original|
Чаптеры:есть

x264 log

x264 [info]: frame I:1246 Avg QP:19.32 size:313059
x264 [info]: frame P:28998 Avg QP:19.28 size:149129
x264 [info]: frame B:118604 Avg QP:19.88 size:101996
x264 [info]: consecutive B-frames: 1.4% 0.7% 4.6% 15.0% 16.2% 55.1% 3.8% 1.4% 0.6% 1.3%

MediaInfo

General
Unique ID : 215164605698012223948158698827216680564 (0xA1DF3219F5946B91BFED2D083E357674)
Complete name : D:\Дороги\The.Way.Way.Back.2013.1080p.BluRay.DTS.x264-Talian-.mkv
Format : Matroska
Format version : Version 2
File size : 18.1 GiB
Duration : 1h 43mn
Overall bit rate : 25.1 Mbps
Movie name : -Talian-
Encoded date : UTC 2013-12-31 17:21:15
Writing application : mkvmerge v5.7.0 ('The Whirlwind') built on Jul 8 2012 20:08:51
Writing library : libebml v1.2.3 + libmatroska v1.3.0
Video
ID : 1
Format : AVC
Format/Info : Advanced Video Codec
Format profile : High@L4.1
Format settings, CABAC : Yes
Format settings, ReFrames : 4 frames
Codec ID : V_MPEG4/ISO/AVC
Duration : 1h 43mn
Bit rate : 21.2 Mbps
Width : 1 920 pixels
Height : 1 040 pixels
Display aspect ratio : 16:9
Frame rate : 23.976 fps
Color space : YUV
Chroma subsampling : 4:2:0
Bit depth : 8 bits
Scan type : Progressive
Bits/(Pixel*Frame) : 0.442
Stream size : 15.3 GiB (84%)
Title : NTb
Writing library : x264 core 140 r2377 1ca7bb9
Encoding settings : cabac=1 / ref=4 / deblock=1:-3:-3 / analyse=0x3:0x133 / me=umh / subme=10 / psy=1 / psy_rd=1.06:0.00 / mixed_ref=1 / me_range=48 / chroma_me=1 / trellis=2 / 8x8dct=1 / cqm=0 / deadzone=21,11 / fast_pskip=0 / chroma_qp_offset=-2 / threads=6 / lookahead_threads=1 / sliced_threads=0 / nr=0 / decimate=0 / interlaced=0 / bluray_compat=0 / constrained_intra=0 / bframes=9 / b_pyramid=2 / b_adapt=2 / b_bias=0 / direct=3 / weightb=1 / open_gop=0 / weightp=2 / keyint=250 / keyint_min=23 / scenecut=40 / intra_refresh=0 / rc_lookahead=100 / rc=crf / mbtree=0 / crf=18.8 / qcomp=0.80 / qpmin=0 / qpmax=69 / qpstep=4 / vbv_maxrate=50000 / vbv_bufsize=62500 / crf_max=0.0 / nal_hrd=none / filler=0 / ip_ratio=1.10 / pb_ratio=1.10 / aq=1:0.60
Language : English
Default : Yes
Forced : No
Audio #1
ID : 2
Format : AC-3
Format/Info : Audio Coding 3
Mode extension : CM (complete main)
Format settings, Endianness : Big
Codec ID : A_AC3
Duration : 1h 43mn
Bit rate mode : Constant
Bit rate : 384 Kbps
Channel(s) : 6 channels
Channel positions : Front: L C R, Side: L R, LFE
Sampling rate : 48.0 KHz
Bit depth : 16 bits
Compression mode : Lossy
Stream size : 284 MiB (2%)
Title : MVO-И. Грачева, А. Шухарт, М. Максимов
Language : Russian
Default : Yes
Forced : No
Audio #2
ID : 3
Format : DTS
Format/Info : Digital Theater Systems
Codec ID : A_DTS
Duration : 1h 43mn
Bit rate mode : Constant
Bit rate : 1 510 Kbps
Channel(s) : 6 channels
Channel positions : Front: L C R, Side: L R, LFE
Sampling rate : 48.0 KHz
Bit depth : 16 bits
Compression mode : Lossy
Stream size : 1.09 GiB (6%)
Title : VO-Andi
Language : Russian
Default : No
Forced : No
Audio #3
ID : 4
Format : DTS
Format/Info : Digital Theater Systems
Codec ID : A_DTS
Duration : 1h 43mn
Bit rate mode : Constant
Bit rate : 1 510 Kbps
Channel(s) : 6 channels
Channel positions : Front: L C R, Side: L R, LFE
Sampling rate : 48.0 KHz
Bit depth : 24 bits
Compression mode : Lossy
Stream size : 1.09 GiB (6%)
Title : Original
Language : English
Default : No
Forced : No
Text #1
ID : 5
Format : UTF-8
Codec ID : S_TEXT/UTF8
Codec ID/Info : UTF-8 Plain Text
Title : Sub
Language : Russian
Default : No
Forced : No
Text #2
ID : 6
Format : UTF-8
Codec ID : S_TEXT/UTF8
Codec ID/Info : UTF-8 Plain Text
Title : Sub
Language : English
Default : No
Forced : No
Text #3
ID : 7
Format : UTF-8
Codec ID : S_TEXT/UTF8
Codec ID/Info : UTF-8 Plain Text
Title : Sub
Language : Spanish
Default : No
Forced : No
Text #4
ID : 8
Format : UTF-8
Codec ID : S_TEXT/UTF8
Codec ID/Info : UTF-8 Plain Text
Title : Sub
Language : French
Default : No
Forced : No
Text #5
ID : 9
Format : UTF-8
Codec ID : S_TEXT/UTF8
Codec ID/Info : UTF-8 Plain Text
Title : Sub-Castillian
Language : Spanish
Default : No
Forced : No
Text #6
ID : 10
Format : UTF-8
Codec ID : S_TEXT/UTF8
Codec ID/Info : UTF-8 Plain Text
Title : Sub
Language : Dutch
Default : No
Forced : No
Text #7
ID : 11
Format : UTF-8
Codec ID : S_TEXT/UTF8
Codec ID/Info : UTF-8 Plain Text
Title : Sub
Language : German
Default : No
Forced : No
Text #8
ID : 12
Format : UTF-8
Codec ID : S_TEXT/UTF8
Codec ID/Info : UTF-8 Plain Text
Title : Sub
Language : Italian
Default : No
Forced : No
Text #9
ID : 13
Format : UTF-8
Codec ID : S_TEXT/UTF8
Codec ID/Info : UTF-8 Plain Text
Title : Sub
Language : Czech
Default : No
Forced : No
Text #10
ID : 14
Format : UTF-8
Codec ID : S_TEXT/UTF8
Codec ID/Info : UTF-8 Plain Text
Title : Sub
Language : Malayalam
Default : No
Forced : No
Text #11
ID : 15
Format : UTF-8
Codec ID : S_TEXT/UTF8
Codec ID/Info : UTF-8 Plain Text
Title : Sub
Language : Romanian
Default : No
Forced : No
Text #12
ID : 16
Format : UTF-8
Codec ID : S_TEXT/UTF8
Codec ID/Info : UTF-8 Plain Text
Title : Sub
Language : Vietnamese
Default : No
Forced : No
Menu
00:00:00.000 : en:00:00:00.000
00:03:38.218 : en:00:03:38.218
00:04:50.207 : en:00:04:50.207
00:09:56.471 : en:00:09:56.471
00:12:51.521 : en:00:12:51.521
00:15:47.363 : en:00:15:47.363
00:17:52.697 : en:00:17:52.697
00:20:10.960 : en:00:20:10.960
00:23:56.644 : en:00:23:56.644
00:27:51.837 : en:00:27:51.837
00:31:14.498 : en:00:31:14.498
00:34:02.082 : en:00:34:02.082
00:36:06.998 : en:00:36:06.998
00:38:39.400 : en:00:38:39.400
00:40:35.308 : en:00:40:35.308
00:43:44.330 : en:00:43:44.330
00:47:57.291 : en:00:47:57.291
00:49:34.847 : en:00:49:34.847
00:55:34.748 : en:00:55:34.748
00:59:23.143 : en:00:59:23.143
01:03:05.490 : en:01:03:05.490
01:07:39.681 : en:01:07:39.681
01:10:52.415 : en:01:10:52.415
01:13:41.709 : en:01:13:41.709
01:16:07.188 : en:01:16:07.188
01:21:03.067 : en:01:21:03.067
01:24:38.657 : en:01:24:38.657
01:27:52.642 : en:01:27:52.642
01:29:35.453 : en:01:29:35.453
01:31:55.427 : en:01:31:55.427
01:33:58.383 : en:01:33:58.383
01:35:03.323 : en:01:35:03.323

Скриншоты

Source vs Encode



Скачать

Скачать торрент!

Как скачивать? · Что такое торрент? · Рейтинг и ограничения

Сайт не распространяет и не хранит электронные версии произведений, а лишь предоставляет доступ к создаваемому пользователями каталогу ссылок на торрент-файлы, которые содержат только списки хеш-сумм

[Профиль] [ЛС]
Показать сообщения:    
Ответить на тему

Текущее время: Сегодня 10:56

Часовой пояс: GMT + 4



Вы не можете начинать темы
Вы не можете отвечать на сообщения
Вы не можете редактировать свои сообщения
Вы не можете удалять свои сообщения
Вы не можете голосовать в опросах
Вы не можете прикреплять файлы к сообщениям
Вы не можете скачивать файлы