Корсиканские братья / Cheech & Chong\'s The Corsican Brothers (Томми Чонг / Tommy Chong) [1984, США, Комедия, HDTVRip 1080p] VO (Гланц) + Sub Eng + Original Eng

Ответить на тему
 
Автор Сообщение

user ®

Стаж: 7 лет 7 месяцев

Сообщений: 20008

Пост Пост: #1 от 06-Янв-2014 19:35

[Цитировать]

Корсиканские братья / Cheech & Chong's The Corsican Brothers- -Страна: США
Жанр: Комедия
Год выпуска: 1984
Продолжительность: 01:30:26-Перевод: Студийный (одноголосый закадровый) Гланц
Cубтитры: английские
Оригинальная аудиодорожка: английский-Режиссер: Томми Чонг / Tommy Chong
В ролях: Cheech Marin / Чич Марин - Корсиканский брат 1 / Tommy Chong / Томми Чонг - Корсиканский брат 2 / Roy Dotrice / Рой Дотрайс - Эвил Факейр / Shelby Chong / Шелби Чонг (Шелби Фиддис) принцесса 1 / Rikki Marin / Рикки Марин - принцесса 2 / Edie McClurg / Эди МакКлёрг - королева / Robbi Chong / Робби Чонг - принцесса 3 / Kay Dotrice / Кэй Дотрайс - женщина-медиум-Описание: Честно говоря, этот фильм слегка выпадает из серии "Укуренные". Потому что никакой укурки здесь не будет.
Фильм начинается тем, что два стареющий укурка проводят гастроли со своей бандой где то во Франции. Местным не нравится их музыка и те платят им чтобы они остановились. Вскоре после этого они встречают цыганку. Она рассказывает им историю о Корсиканских Братьях, которые пытаются свергнуть коррумпированное правительство. После рассказа они продолжают свои гастроли.- -Тип релиза: HDTVRip 1080p
Контейнер: MKV
Видео: AVC (x264) 1920x1080@29.970 fps vbr ~5 061 Kbps 16:9 High@L4.0
Аудио 1: AVO Пётр Гланц AC3 192 kBit/s 48 kHz 2.0 DD
Аудио 2: English AC3 384 kBit/s 48 kHz 2.0 DD
Формат субтитров: softsub (SRT)-

MediaInfo

General
Unique ID : 196280064296523559212630886454897310123 (0x93AA2A532A2A03C78968E15F46F279AB)
Complete name : D:\Cheech.and.Chong's.The.Corsican.Brothers.1984.1080p.HDTV.AC3.DD2.0.H264\Cheech and Chong's The Corsican Brothers.mkv
Format : Matroska
Format version : Version 4 / Version 2
File size : 3.63 GiB
Duration : 1h 30mn
Overall bit rate mode : Variable
Overall bit rate : 5 752 Kbps
Encoded date : UTC 2013-12-28 18:15:25
Writing application : mkvmerge v6.5.0 ('Isn't she lovely') built on Oct 20 2013 12:50:05
Writing library : libebml v1.3.0 + libmatroska v1.4.1
Video
ID : 1
Format : AVC
Format/Info : Advanced Video Codec
Format profile : High@L4.0
Format settings, CABAC : Yes
Format settings, ReFrames : 4 frames
Codec ID : V_MPEG4/ISO/AVC
Duration : 1h 30mn
Bit rate mode : Variable
Bit rate : 5 061 Kbps
Maximum bit rate : 40.0 Mbps
Width : 1 920 pixels
Height : 1 072 pixels
Display aspect ratio : 16:9
Frame rate mode : Constant
Frame rate : 29.970 fps
Color space : YUV
Chroma subsampling : 4:2:0
Bit depth : 8 bits
Scan type : Progressive
Bits/(Pixel*Frame) : 0.082
Stream size : 3.20 GiB (88%)
Writing library : x264 core 129 r2230 1cffe9f
Encoding settings : cabac=1 / ref=4 / deblock=1:-1:-1 / analyse=0x3:0x133 / me=umh / subme=10 / psy=1 / psy_rd=1.00:0.15 / mixed_ref=1 / me_range=24 / chroma_me=1 / trellis=2 / 8x8dct=1 / cqm=0 / deadzone=21,11 / fast_pskip=1 / chroma_qp_offset=-3 / threads=3 / lookahead_threads=1 / sliced_threads=0 / nr=0 / decimate=1 / interlaced=0 / bluray_compat=0 / constrained_intra=0 / bframes=4 / b_pyramid=2 / b_adapt=2 / b_bias=0 / direct=3 / weightb=1 / open_gop=0 / weightp=2 / keyint=250 / keyint_min=25 / scenecut=40 / intra_refresh=0 / rc_lookahead=60 / rc=crf / mbtree=1 / crf=18.0 / qcomp=0.60 / qpmin=0 / qpmax=69 / qpstep=4 / ip_ratio=1.40 / aq=1:1.0
Language : English
Default : Yes
Forced : No
Audio #1
ID : 2
Format : AC-3
Format/Info : Audio Coding 3
Mode extension : CM (complete main)
Format settings, Endianness : Big
Codec ID : A_AC3
Duration : 1h 30mn
Bit rate mode : Constant
Bit rate : 192 Kbps
Channel count : 2 channels
Channel positions : Front: L R
Sampling rate : 48.0 KHz
Bit depth : 16 bits
Compression mode : Lossy
Stream size : 124 MiB (3%)
Language : Russian
Default : Yes
Forced : No
Audio #2
ID : 3
Format : AC-3
Format/Info : Audio Coding 3
Mode extension : CM (complete main)
Format settings, Endianness : Big
Codec ID : A_AC3
Duration : 1h 30mn
Bit rate mode : Constant
Bit rate : 384 Kbps
Channel count : 2 channels
Channel positions : Front: L R
Sampling rate : 48.0 KHz
Bit depth : 16 bits
Compression mode : Lossy
Stream size : 248 MiB (7%)
Language : English
Default : No
Forced : No
Text
ID : 4
Format : UTF-8
Codec ID : S_TEXT/UTF8
Codec ID/Info : UTF-8 Plain Text
Language : English
Default : No
Forced : No

Скриншоты

Скачать

Скачать торрент!

Как скачивать? · Что такое торрент? · Рейтинг и ограничения

Сайт не распространяет и не хранит электронные версии произведений, а лишь предоставляет доступ к создаваемому пользователями каталогу ссылок на торрент-файлы, которые содержат только списки хеш-сумм

[Профиль] [ЛС]
Показать сообщения:    
Ответить на тему

Текущее время: Сегодня 20:22

Часовой пояс: GMT + 4



Вы не можете начинать темы
Вы не можете отвечать на сообщения
Вы не можете редактировать свои сообщения
Вы не можете удалять свои сообщения
Вы не можете голосовать в опросах
Вы не можете прикреплять файлы к сообщениям
Вы не можете скачивать файлы