Фото за час / One Hour Photo (Марк Романек / Mark Romanek) [2002, США, триллер, драма, BDRip 720p] 2x MVO + Sub Rus, Eng + Original Eng

Ответить на тему
 
Автор Сообщение

user ®

Стаж: 7 лет 7 месяцев

Сообщений: 20008

Пост Пост: #1 от 06-Янв-2014 19:35

[Цитировать]

Фото за час / One Hour Photo Страна: США
Студия: Killer Films, Laughlin Park Pictures
Жанр: триллер, драма
Год выпуска: 2002
Продолжительность: 01:36:01
Перевод 1: Профессиональный (многоголосый закадровый) [DVD R5 - 20th Century Fox]
Перевод 2: Профессиональный (многоголосый закадровый) [по заказу 1 канала]
Cубтитры: русские, английские, SDH
Оригинальная аудиодорожка: английский
Режиссер: Марк Романек / Mark Romanek
В ролях: Робин Уильямс, Конни Нильсен, Майкл Вартан, Дилан Смит, Эрин Дэниелс, Пол Х. Ким, Ли Гарлингтон, Гэри Коул, Мэрион Кэлверт, Дэвид Морлэнд, Ник Сирси, Джимми Шуберт, Эрик Ла Салль, Кларк Грегг, Питер Маккензи
Описание: Сай Перриш — одинокий пожилой начальник фотолаборатории. В его жизни нет ничего, кроме работы. Единственная отрада в жизни Сая — семья Йоркин. Проявляя для них фотографии на протяжении многих лет, Сай привязывается к этой семье, и в особенности к маленькому Джейкобу. Но привязанность эта заходит слишком далеко…- -Тип релиза: BDRip 720p (исходник: BDRemux MPEG-4 AVC Video / 1080p / 35413 kbps / 23,976 fps / High Profile 4.1)
Контейнер: MKV
Видео: MPEG-4 AVC Video, 1280x696 / 1,85:1 (16:9) / 8780 kbps / 23,976 fps / High@L4.1 / 2pass
Аудио 1: Russian: DTS, 5.1 ch, 1509 kbps, 48 kHz, 24-bit - | DVD R5
Аудио 2: Russian: AC3, 2.0 ch, 224 kbps, 48 kHz - | 1 канала
Аудио 3: English: DTS, 5.1 ch, 1509 kbps, 48 kHz, 24-bit
Формат субтитров: softsub (SRT)
Главы:

х264 Log

x264 [info]: frame I:970 Avg QP:16.72 size:142576
x264 [info]: frame P:22378 Avg QP:18.53 size: 69802
x264 [info]: frame B:114781 Avg QP:20.65 size: 40240
x264 [info]: consecutive B-frames: 1.2% 1.4% 2.6% 10.4% 8.5% 29.6% 6.8% 9.4% 4.3% 8.7% 4.2% 8.1% 4.8%

MediaInfo

Общее
Уникальный идентификатор : 231872644722888928833661659407142453340 (0xAE710C0697E9D2FAB5D8C26A1D69805C)
Полное имя : I:\Фото за час 2002.BDRip.720p.2хПМ.Eng.mkv
Формат : Matroska
Версия формата : Version 4 / Version 2
Размер файла : 8,06 Гбайт
Продолжительность : 1 ч. 36 м.
Общий поток : 12,0 Мбит/сек
Название фильма : One Hour Photo (2002)
Дата кодирования : UTC 2014-01-05 14:44:35
Программа кодирования : mkvmerge v6.6.0 ('The Edge Of The In Between') built on Dec 18 2013 23:19:42
Библиотека кодирования : libebml v1.3.0 + libmatroska v1.4.1
Видео
Идентификатор : 1
Формат : AVC
Формат/Информация : Advanced Video Codec
Профиль формата : High@L4.1
Параметр CABAC формата : Да
Параметр ReFrames формата : 8 кадров
Идентификатор кодека : V_MPEG4/ISO/AVC
Продолжительность : 1 ч. 36 м.
Битрейт : 8780 Кбит/сек
Ширина : 1280 пикселей
Высота : 696 пикселей
Соотношение сторон : 1,85:1
Режим частоты кадров : Постоянный
Частота кадров : 23,976 кадра/сек
Цветовое пространство : YUV
Субдискретизация насыщенности : 4:2:0
Битовая глубина : 8 бит
Тип развёртки : Прогрессивная
Бит/(Пиксели*Кадры) : 0.411
Размер потока : 5,73 Гбайт (71%)
Библиотека кодирования : x264 core 133 r2334 a3ac64b
Настройки программы : cabac=1 / ref=8 / deblock=1:-2:-2 / analyse=0x3:0x133 / me=umh / subme=10 / psy=1 / psy_rd=0.95:0.00 / mixed_ref=1 / me_range=32 / chroma_me=1 / trellis=2 / 8x8dct=1 / cqm=0 / deadzone=21,11 / fast_pskip=1 / chroma_qp_offset=-2 / threads=6 / lookahead_threads=1 / sliced_threads=0 / nr=0 / decimate=1 / interlaced=0 / bluray_compat=0 / constrained_intra=0 / bframes=12 / b_pyramid=2 / b_adapt=2 / b_bias=0 / direct=3 / weightb=1 / open_gop=0 / weightp=2 / keyint=240 / keyint_min=23 / scenecut=40 / intra_refresh=0 / rc_lookahead=60 / rc=2pass / mbtree=0 / bitrate=8780 / ratetol=1.0 / qcomp=0.60 / qpmin=0 / qpmax=64 / qpstep=4 / cplxblur=20.0 / qblur=0.5 / vbv_maxrate=50000 / vbv_bufsize=62500 / nal_hrd=none / ip_ratio=1.40 / pb_ratio=1.30 / aq=1:0.90
Язык : English
Default : Да
Forced : Нет
Аудио #1
Идентификатор : 2
Формат : DTS
Формат/Информация : Digital Theater Systems
Режим : 16
Параметр Endianness формата : Big
Идентификатор кодека : A_DTS
Продолжительность : 1 ч. 36 м.
Вид битрейта : Постоянный
Битрейт : 1509 Кбит/сек
Каналы : 6 каналов
Расположение каналов : Front: L C R, Side: L R, LFE
Частота : 48,0 КГц
Битовая глубина : 24 бит
Метод сжатия : С потерями
Размер потока : 1,01 Гбайт (13%)
Заголовок : DTS 5.1ch 24-bit 1509kbps - многоголосый (DVD R5 - 20th Century Fox)
Язык : Russian
Default : Да
Forced : Нет
Аудио #2
Идентификатор : 3
Формат : AC-3
Формат/Информация : Audio Coding 3
Расширение режима : CM (complete main)
Параметр Endianness формата : Big
Идентификатор кодека : A_AC3
Продолжительность : 1 ч. 36 м.
Вид битрейта : Постоянный
Битрейт : 224 Кбит/сек
Каналы : 2 канала
Расположение каналов : Front: L R
Частота : 48,0 КГц
Битовая глубина : 16 бит
Метод сжатия : С потерями
Размер потока : 154 Мбайт (2%)
Заголовок : AC3 2.0ch 224kbps - многоголосый (по заказу 1 канала)
Язык : Russian
Default : Нет
Forced : Нет
Аудио #3
Идентификатор : 4
Формат : DTS
Формат/Информация : Digital Theater Systems
Режим : 16
Параметр Endianness формата : Big
Идентификатор кодека : A_DTS
Продолжительность : 1 ч. 36 м.
Вид битрейта : Постоянный
Битрейт : 1509 Кбит/сек
Каналы : 6 каналов
Расположение каналов : Front: L C R, Side: L R, LFE
Частота : 48,0 КГц
Битовая глубина : 24 бит
Метод сжатия : С потерями
Размер потока : 1,01 Гбайт (13%)
Заголовок : DTS 5.1ch 24-bit 1509kbps - original
Язык : English
Default : Нет
Forced : Нет
Текст #1
Идентификатор : 5
Формат : UTF-8
Идентификатор кодека : S_TEXT/UTF8
Идентификатор кодека/Информация : UTF-8 Plain Text
Язык : Russian
Default : Нет
Forced : Нет
Текст #2
Идентификатор : 6
Формат : UTF-8
Идентификатор кодека : S_TEXT/UTF8
Идентификатор кодека/Информация : UTF-8 Plain Text
Язык : English
Default : Нет
Forced : Нет
Текст #3
Идентификатор : 7
Формат : UTF-8
Идентификатор кодека : S_TEXT/UTF8
Идентификатор кодека/Информация : UTF-8 Plain Text
Заголовок : SDH
Язык : English
Default : Нет
Forced : Нет
Меню
00:00:00.000 : en:00:00:00.000
00:03:08.563 : en:00:03:08.563
00:04:24.889 : en:00:04:24.889
00:06:46.114 : en:00:06:46.114
00:11:17.385 : en:00:11:17.385
00:13:02.448 : en:00:13:02.448
00:16:23.857 : en:00:16:23.857
00:17:49.276 : en:00:17:49.276
00:19:36.341 : en:00:19:36.341
00:22:13.040 : en:00:22:13.040
00:24:18.957 : en:00:24:18.957
00:27:25.685 : en:00:27:25.685
00:29:00.947 : en:00:29:00.947
00:33:21.666 : en:00:33:21.666
00:36:57.882 : en:00:36:57.882
00:41:25.566 : en:00:41:25.566
00:45:13.043 : en:00:45:13.043
00:49:40.185 : en:00:49:40.185
00:51:48.897 : en:00:51:48.897
00:55:32.829 : en:00:55:32.829
00:58:05.482 : en:00:58:05.482
00:59:04.249 : en:00:59:04.249
01:00:43.264 : en:01:00:43.264
01:04:28.614 : en:01:04:28.614
01:06:11.384 : en:01:06:11.384
01:07:32.048 : en:01:07:32.048
01:12:19.793 : en:01:12:19.793
01:16:03.517 : en:01:16:03.517
01:18:20.445 : en:01:18:20.445
01:22:23.939 : en:01:22:23.939
01:24:04.289 : en:01:24:04.289
01:29:18.353 : en:01:29:18.353

-

Скриншот с названием фильма

Скачать

Скачать торрент!

Как скачивать? · Что такое торрент? · Рейтинг и ограничения

Сайт не распространяет и не хранит электронные версии произведений, а лишь предоставляет доступ к создаваемому пользователями каталогу ссылок на торрент-файлы, которые содержат только списки хеш-сумм

[Профиль] [ЛС]
Показать сообщения:    
Ответить на тему

Текущее время: Сегодня 22:33

Часовой пояс: GMT + 4



Вы не можете начинать темы
Вы не можете отвечать на сообщения
Вы не можете редактировать свои сообщения
Вы не можете удалять свои сообщения
Вы не можете голосовать в опросах
Вы не можете прикреплять файлы к сообщениям
Вы не можете скачивать файлы