Ограбление в Монте-Карло / Герби в Монте-Карло / Herbie Goes to Monte Carlo (Винсент МакЭвети / Vincent McEveety) [1977, США, боевик, мелодрама, комедия, приключения, семейный, HDTVRip 720p] MVO + MVO (Ukrainian) + Original (English) + Sub (rus)

Ответить на тему
 
Автор Сообщение

user ®

Стаж: 7 лет 7 месяцев

Сообщений: 20008

Пост Пост: #1 от 06-Янв-2014 19:35

[Цитировать]

Ограбление в Монте-Карло / Herbie Goes to Monte Carlo«The Love Bug falls 'hood-over-wheels' for a classy chassis!»- Страна: США
Жанр: боевик, мелодрама, комедия, приключения, семейный
Год выпуска: 1977
Продолжительность: 01:40:22-Перевод: Профессиональный (многоголосый, закадровый) 1 канал
+ Ukrainian Профессиональный (многоголосый, закадровый) Новый канал
Оригинальная аудиодорожка: English DVD
Cубтитры: русские на непереведенную концовку 7 мин-Режиссер: Винсент МакЭвети / Vincent McEveety
В ролях: Дин Джонс, Дон Ноттс, Джули Соммарс, Жак Марен, Рой Киннер, Бернард Фокс, Эрик Браден, Ксавьер Сен-Макари, Франсуа Лаланд, Алан Кайу-Описание: Герби принимает участие в авторалли Монте-Карло. Водитель жука даже не подозревает, какой ценный груз спрятан в бензобаке автомобиля. Теперь его преследуют воры, которым позарез нужен Герби.-IMDB | КиноПоиск | Сэмпл-Качество видео: HDTVRip 720p | | исх. Herbie Goes to Monte Carlo 1977 1080p HDTV DD2.0 H.264-lulz
Формат видео: MKV-Видео: 1194x720 at 25.000 fps, x.264, ~6600 kbps avg
Аудио 1: 48 kHz, AC3, 2/0 (L,R) ch, ~192 kbps avg | Профессиональный (многоголосый, закадровый) 1 канал
Аудио 2: 48 kHz, AC3, 3/2 (L,C,R,l,r) + LFE ch, ~448.00 kbps avg | Ukrainian Профессиональный (многоголосый, закадровый) Новый канал
Аудио 3: 48 kHz, AC3, 3/2 (L,C,R,l,r) + LFE ch, ~448.00 kbps avg | English DVD-

MediaInfo

General
Unique ID : 216014840141449279452971608537125919348 (0xA282F1E55CCC5DC78AA4B7AB6A109A74)
Complete name : D:\Фильмы\Herbie.Goes.to.Monte.Carlo.1977.720p.HDTVRip.Rus.Ukr.Eng.HDCLUB.mkv
Format : Matroska
Format version : Version 2
File size : 5.49 GiB
Duration : 1h 40mn
Overall bit rate : 7 825 Kbps
Movie name : Herbie Goes to Monte Carlo (1977) - Release for HDCLUB
Encoded date : UTC 2013-12-30 00:16:04
Writing application : mkvmerge v3.4.0 ('Rapunzel') built on May 15 2010 09:38:20
Writing library : libebml v0.8.0 + libmatroska v0.9.0
Video
ID : 1
Format : AVC
Format/Info : Advanced Video Codec
Format profile : High@L4.1
Format settings, CABAC : Yes
Format settings, ReFrames : 9 frames
Codec ID : V_MPEG4/ISO/AVC
Duration : 1h 40mn
Bit rate : 6 582 Kbps
Width : 1 194 pixels
Height : 720 pixels
Display aspect ratio : 1.658
Frame rate mode : Constant
Frame rate : 25.000 fps
Color space : YUV
Chroma subsampling : 4:2:0
Bit depth : 8 bits
Scan type : Progressive
Bits/(Pixel*Frame) : 0.306
Stream size : 4.61 GiB (84%)
Title : Herbie Goes to Monte Carlo (1977) - Release for HDCLUB
Writing library : x264 core 140 r2377+40 929f149 tMod [8-bit@4:2:0 X86_64]
Encoding settings : cabac=1 / ref=9 / deblock=1:-2:-2 / analyse=0x3:0x113 / me=umh / subme=11 / psy=1 / fade_compensate=0.00 / psy_rd=1.00:0.00 / mixed_ref=1 / me_range=48 / chroma_me=1 / trellis=2 / 8x8dct=1 / cqm=0 / deadzone=21,11 / fast_pskip=1 / chroma_qp_offset=-2 / threads=12 / lookahead_threads=2 / sliced_threads=0 / nr=0 / decimate=1 / interlaced=0 / bluray_compat=0 / constrained_intra=0 / fgo=0 / bframes=8 / b_pyramid=2 / b_adapt=2 / b_bias=0 / direct=3 / weightb=1 / open_gop=0 / weightp=2 / keyint=250 / keyint_min=25 / scenecut=40 / intra_refresh=0 / rc_lookahead=60 / rc=crf / mbtree=0 / crf=18.0000 / qcomp=0.60 / qpmin=0:0:0 / qpmax=69:69:69 / qpstep=4 / vbv_maxrate=62500 / vbv_bufsize=78125 / crf_max=0.0 / nal_hrd=none / filler=0 / ip_ratio=1.40 / pb_ratio=1.30 / aq=4:0.80 / aq-sensitivity=11.00 / aq-factor=1.00:1.00:1.00 / aq2=1:0.60 / aq2-sensitivity=9.00 / aq2-factor=1.00:1.00:1.00 / aq3=1:[0.60:0.60]:[0.60:0.60]:[0.60:0.60]:[0.60:0.60] / aq3-sensitivity=10.00 / aq3-factor=[1.00:1.00]:[1.00:1.00]:[1.00:1.00] / aq3-boundary=192:64:24
Language : English
Default : Yes
Forced : No
Color primaries : BT.709
Transfer characteristics : BT.709
Matrix coefficients : BT.709
Audio #1
ID : 2
Format : AC-3
Format/Info : Audio Coding 3
Mode extension : CM (complete main)
Format settings, Endianness : Big
Codec ID : A_AC3
Duration : 1h 40mn
Bit rate mode : Constant
Bit rate : 192 Kbps
Channel(s) : 2 channels
Channel positions : Front: L R
Sampling rate : 48.0 KHz
Bit depth : 16 bits
Compression mode : Lossy
Stream size : 138 MiB (2%)
Title : AC3 2.0 @ 192 kbps - MVO, 1 Kanal
Language : Russian
Default : Yes
Forced : No
Audio #2
ID : 3
Format : AC-3
Format/Info : Audio Coding 3
Mode extension : CM (complete main)
Format settings, Endianness : Big
Codec ID : A_AC3
Duration : 1h 40mn
Bit rate mode : Constant
Bit rate : 448 Kbps
Channel(s) : 6 channels
Channel positions : Front: L C R, Side: L R, LFE
Sampling rate : 48.0 KHz
Bit depth : 16 bits
Compression mode : Lossy
Stream size : 322 MiB (6%)
Title : AC3 5.1 @ 448 kbps - MVO, Noviy Kanal
Language : Ukrainian
Default : No
Forced : No
Audio #3
ID : 4
Format : AC-3
Format/Info : Audio Coding 3
Mode extension : CM (complete main)
Format settings, Endianness : Big
Codec ID : A_AC3
Duration : 1h 40mn
Bit rate mode : Constant
Bit rate : 448 Kbps
Channel(s) : 6 channels
Channel positions : Front: L C R, Side: L R, LFE
Sampling rate : 48.0 KHz
Bit depth : 16 bits
Compression mode : Lossy
Stream size : 322 MiB (6%)
Title : AC3 5.1 @ 448 kbps
Language : English
Default : No
Forced : No
Text
ID : 5
Format : UTF-8
Codec ID : S_TEXT/UTF8
Codec ID/Info : UTF-8 Plain Text
Title : Forced
Language : Russian
Default : Yes
Forced : Yes

Скриншоты

Скачать

Скачать торрент!

Как скачивать? · Что такое торрент? · Рейтинг и ограничения

Сайт не распространяет и не хранит электронные версии произведений, а лишь предоставляет доступ к создаваемому пользователями каталогу ссылок на торрент-файлы, которые содержат только списки хеш-сумм

[Профиль] [ЛС]
Показать сообщения:    
Ответить на тему

Текущее время: Сегодня 19:21

Часовой пояс: GMT + 4



Вы не можете начинать темы
Вы не можете отвечать на сообщения
Вы не можете редактировать свои сообщения
Вы не можете удалять свои сообщения
Вы не можете голосовать в опросах
Вы не можете прикреплять файлы к сообщениям
Вы не можете скачивать файлы