Пункт назначения 5 / Final Destination 5 (Стивен Куэйл / Steven Quale) [2011, США, ужасы, триллер, BDRip 720p] Dub + Original (Eng) + Ukr (Dub) + Sub (Rus, Ukr, Eng)

Ответить на тему
 
Автор Сообщение

user ®

Стаж: 7 лет 7 месяцев

Сообщений: 20008

Пост Пост: #1 от 06-Янв-2014 01:30

[Цитировать]

Пункт назначения 5 / Final Destination 5- Страна: США
Жанр: ужасы, триллер
Год выпуска: 2011
Продолжительность: 01:31:49
Перевод: Профессиональный (дублированный) BD CEE
Cубтитры: русские, украинские, английские
Оригинальная аудиодорожка: английский-Режиссер: Стивен Куэйл / Steven Quale
В ролях: Николас Д’Агосто, Эмма Белл, Майлз Фишер, Эллен Ро, Жаклин МакИннес Вуд, П.Дж. Бирн, Арлен Эскарпета, Дэвид Кокнер, Кортни Б. Вэнс, Тони Тодд.
Описание: У Сэма Лоутона происходит жуткое видение: подвесной мост, на котором он находится со своими друзьями, рушится, и многие люди, включая его самого, погибают. Сэм начинает паниковать и уговаривает своих друзей и ещё нескольких «счастливчиков» уйти с моста. И как раз вовремя: как и предвидел Сэм, мост рушится на их глазах и множество людей погибает. Однако Сэм и его девушка Молли понимают, что смерть дала им лишь отсрочку, так как выжившие начинают погибать один за другим. Он должен понять, как обманув смерть однажды, обмануть её ещё раз, прежде чем настанет его очередь.-Релиз: NiP!
Тип релиза: BDRip 720p
Контейнер: MKV | Sample
Видео: 1280x534 (2.40:1), 23.976 fps, 5000 kbps avg
Аудио 1: 48 kHz, AC3, 16 bit, (L,C,R,l,r) + LFE ch, 640.00 kbps avg (Russian)
Аудио 2: 48 kHz, AC3, 16 bit, (L,C,R,l,r) + LFE ch, 640.00 kbps avg (Ukrainian)
Аудио 3: 48 kHz, DTS, 24 bit, (L,C,R,l,r) + LFE ch, 1509.00 kbps avg (English)

Скриншоты

Медиаинфо

Формат : Matroska
Версия формата : Version 4 / Version 2
Размер файла : 5,00 Гбайт
Продолжительность : 1 ч. 31 м.
Общий поток : 7794 Кбит/сек
Название фильма : HANSMER
Дата кодирования : UTC 2014-01-04 20:41:45
Программа кодирования : mkvmerge v6.6.0 ('The Edge Of The In Between') built on Dec 1 2013 17:55:00
Библиотека кодирования : libebml v1.3.0 + libmatroska v1.4.1
Attachment : Yes / Yes / Yes
Видео
Идентификатор : 1
Формат : AVC
Формат/Информация : Advanced Video Codec
Профиль формата : High@L4.1
Параметр CABAC формата : Да
Параметр ReFrames формата : 12 кадров
Идентификатор кодека : V_MPEG4/ISO/AVC
Продолжительность : 1 ч. 31 м.
Битрейт : 5001 Кбит/сек
Ширина : 1280 пикселей
Высота : 534 пикселя
Соотношение сторон : 2,40:1
Режим частоты кадров : Постоянный
Частота кадров : 23,976 кадра/сек
Цветовое пространство : YUV
Субдискретизация насыщенности : 4:2:0
Битовая глубина : 8 бит
Тип развёртки : Прогрессивная
Бит/(Пиксели*Кадры) : 0.305
Размер потока : 3,11 Гбайт (62%)
Заголовок : Final.Destination.5.2011.Blu-ray.720p.x264-NiP
Библиотека кодирования : x264 core 120 r2120 0c7dab9
Настройки программы : cabac=1 / ref=12 / deblock=1:-3:-3 / analyse=0x3:0x113 / me=umh / subme=11 / psy=1 / psy_rd=1.00:0.00 / mixed_ref=1 / me_range=48 / chroma_me=1 / trellis=2 / 8x8dct=1 / cqm=0 / deadzone=21,11 / fast_pskip=0 / chroma_qp_offset=-2 / threads=12 / sliced_threads=0 / nr=0 / decimate=0 / interlaced=0 / bluray_compat=0 / constrained_intra=0 / bframes=8 / b_pyramid=2 / b_adapt=2 / b_bias=0 / direct=3 / weightb=1 / open_gop=0 / weightp=2 / keyint=250 / keyint_min=24 / scenecut=40 / intra_refresh=0 / rc_lookahead=60 / rc=2pass / mbtree=0 / bitrate=5001 / ratetol=1.0 / qcomp=0.70 / qpmin=0 / qpmax=69 / qpstep=4 / cplxblur=20.0 / qblur=0.5 / vbv_maxrate=50000 / vbv_bufsize=62500 / nal_hrd=none / ip_ratio=1.30 / pb_ratio=1.20 / aq=2:0.90
Язык : English
Default : Да
Forced : Нет
Коэффициенты матрицы : BT.709
Аудио #1
Идентификатор : 2
Формат : AC-3
Формат/Информация : Audio Coding 3
Расширение режима : CM (complete main)
Параметр Endianness формата : Big
Идентификатор кодека : A_AC3
Продолжительность : 1 ч. 31 м.
Вид битрейта : Постоянный
Битрейт : 640 Кбит/сек
Каналы : 6 каналов
Расположение каналов : Front: L C R, Side: L R, LFE
Частота : 48,0 КГц
Битовая глубина : 16 бит
Метод сжатия : С потерями
Размер потока : 420 Мбайт (8%)
Язык : Russian
Default : Да
Forced : Нет
Аудио #2
Идентификатор : 3
Формат : AC-3
Формат/Информация : Audio Coding 3
Расширение режима : CM (complete main)
Параметр Endianness формата : Big
Идентификатор кодека : A_AC3
Продолжительность : 1 ч. 31 м.
Вид битрейта : Постоянный
Битрейт : 640 Кбит/сек
Каналы : 6 каналов
Расположение каналов : Front: L C R, Side: L R, LFE
Частота : 48,0 КГц
Битовая глубина : 16 бит
Метод сжатия : С потерями
Размер потока : 420 Мбайт (8%)
Язык : Ukrainian
Default : Нет
Forced : Нет
Аудио #3
Идентификатор : 4
Формат : DTS
Формат/Информация : Digital Theater Systems
Режим : 16
Параметр Endianness формата : Big
Идентификатор кодека : A_DTS
Продолжительность : 1 ч. 31 м.
Вид битрейта : Постоянный
Битрейт : 1509 Кбит/сек
Каналы : 6 каналов
Расположение каналов : Front: L C R, Side: L R, LFE
Частота : 48,0 КГц
Битовая глубина : 24 бит
Метод сжатия : С потерями
Размер потока : 991 Мбайт (19%)
Язык : English
Default : Нет
Forced : Нет
Текст #1
Идентификатор : 5
Формат : UTF-8
Идентификатор кодека : S_TEXT/UTF8
Идентификатор кодека/Информация : UTF-8 Plain Text
Заголовок : Forced
Язык : Russian
Default : Да
Forced : Нет
Текст #2
Идентификатор : 6
Формат : UTF-8
Идентификатор кодека : S_TEXT/UTF8
Идентификатор кодека/Информация : UTF-8 Plain Text
Язык : Russian
Default : Нет
Forced : Нет
Текст #3
Идентификатор : 7
Формат : UTF-8
Идентификатор кодека : S_TEXT/UTF8
Идентификатор кодека/Информация : UTF-8 Plain Text
Язык : Ukrainian
Default : Нет
Forced : Нет
Текст #4
Идентификатор : 8
Формат : UTF-8
Идентификатор кодека : S_TEXT/UTF8
Идентификатор кодека/Информация : UTF-8 Plain Text
Язык : English
Default : Нет
Forced : Нет
Меню
00:00:00.000 : en:Chapter 1
00:09:51.341 : en:Chapter 2
00:20:22.763 : en:Chapter 3
00:30:36.543 : en:Chapter 4
00:40:56.996 : en:Chapter 5
00:51:19.076 : en:Chapter 6
01:00:55.777 : en:Chapter 7
01:09:02.847 : en:Chapter 8
01:22:35.576 : en:Chapter 9
01:26:23.303 : en:Chapter 10
Скачать

Скачать торрент!

Как скачивать? · Что такое торрент? · Рейтинг и ограничения

Сайт не распространяет и не хранит электронные версии произведений, а лишь предоставляет доступ к создаваемому пользователями каталогу ссылок на торрент-файлы, которые содержат только списки хеш-сумм

[Профиль] [ЛС]
Показать сообщения:    
Ответить на тему

Текущее время: Сегодня 02:27

Часовой пояс: GMT + 4



Вы не можете начинать темы
Вы не можете отвечать на сообщения
Вы не можете редактировать свои сообщения
Вы не можете удалять свои сообщения
Вы не можете голосовать в опросах
Вы не можете прикреплять файлы к сообщениям
Вы не можете скачивать файлы