Красавица и чудовище: Чудесное Рождество / Beauty and the Beast: The Enchanted Christmas (Эндрю Найт / Andrew Knight) [1997, Мультфильм, семейный, музыка, BDRip] Dub + MVO + Original + subs (Rus, Eng)

Ответить на тему
 
Автор Сообщение

user ®

Стаж: 13 лет

Сообщений: 15041

Пост Пост: #1 от 05-Янв-2014 18:05

[Цитировать]

Красавица и чудовище: Чудесное Рождество / Beauty and the Beast: The Enchanted Christmas- Год выпуска: 1997
Выпущено: США, Канада
Жанр: Мультфильм, семейный, музыка
Продолжительность: 01:10:43
Перевод: Профессиональный (полное дублирование)
+ Профессиональный (многоголосый, закадровый)
+ Оригинальная звуковая дорожка
Субтитры: Русские, английские (внешние srt*)-Режиссер: Эндрю Найт / Andrew Knight
Роли озвучивали: Пейдж О’Хара, Робби Бенсон, Джерри Орбак, Дэвид Огден Стайерз, Бернадетт Питерс, Тим Карри, Хэйли Джоэл Осмент
О фильме: Любовь Белл к чудовищу изменила все вокруг и теперь все заколдованные предметы в замке снова стали людьми, даже маленький Чип, некогда бывший всего лишь маленькой чашечкой. В свое первое Рождество, которое Чип встречает не как чашечка, а как мальчик, он просит маму рассказать, что же на самом деле случилось в замке прошлым Рождеством. Рождество — это время волшебства, но сильнее всего на свете оно в замке чудовища. Время тьмы и горя ушло навеки, но что способствовало этому?
Релиз:
Автор: kingsize87
Качество: BDRip (источник: xfiles / Blu-ray Remux / 1080p)
Формат: AVI
Видео: 720x400 (1.80:1), 23,976 fps, XviD build 65 ~1831 kbps avg, 0.27 bit/pixel
Аудио #1: 48 kHz, AC3 Dolby Digital, 2/0 (L,R), ~192.00 kbps avg dub
Аудио #2: 48 kHz, AC3 Dolby Digital, 3/2 (L,C,R,l,r) + LFE ch, ~448.00 kbps avg mvo
Аудио #3: 48 kHz, AC3 Dolby Digital, 3/2 (L,C,R,l,r) + LFE ch, ~448.00 kbps avg eng
Размер: 1487.09 Mb (1/3 DVD-R)-

Кадры из фильма


-

Mi


Формат : AVI
Формат/Информация : Audio Video Interleave
Размер файла : 1,45 Гбайт
Продолжительность : 1 ч. 10 м.
Общий поток : 2940 Кбит/сек
Название фильма : Красавица и чудовище: Чудесное Рождество / Beauty and the Beast: The Enchanted Christmas [ReRip] (1997) BDRip
Режиссёр : kingsize87
Программа кодирования : VirtualDubMod 1.5.10.2 (build 2540/release)
Правообладатель : HQCLUB
Примечание : 05.01.2014
Видео
Идентификатор : 0
Формат : MPEG-4 Visual
Профиль формата : Advanced Simple@L5
Параметр BVOP формата : 1
Параметр QPel формата : Нет
Параметр GMC формата : Без точки перехода
Параметр матрицы формата : Выборочная
Идентификатор кодека : XVID
Идентификатор кодека/Подсказка : XviD
Продолжительность : 1 ч. 10 м.
Битрейт : 1833 Кбит/сек
Ширина : 720 пикселей
Высота : 400 пикселей
Соотношение сторон : 16:9
Частота кадров : 23,976 кадра/сек
Цветовое пространство : YUV
Субдискретизация насыщенности : 4:2:0
Битовая глубина : 8 бит
Тип развёртки : Прогрессивная
Метод сжатия : С потерями
Бит/(Пиксели*Кадры) : 0.265
Размер потока : 927 Мбайт (62%)
Библиотека кодирования : XviD 65
Аудио #1
Идентификатор : 1
Формат : AC-3
Формат/Информация : Audio Coding 3
Расширение режима : CM (complete main)
Параметр Endianness формата : Big
Идентификатор кодека : 2000
Продолжительность : 1 ч. 10 м.
Вид битрейта : Постоянный
Битрейт : 192 Кбит/сек
Каналы : 2 канала
Расположение каналов : Front: L R
Частота : 48,0 КГц
Битовая глубина : 16 бит
Метод сжатия : С потерями
Размер потока : 97,1 Мбайт (7%)
Выравнивание : Разделение по промежуткам
Продолжительность промежутка : 42 мс. (1,00 видеокадр)
Время предзагрузки промежутка : 500 мс.
Аудио #2
Идентификатор : 2
Формат : AC-3
Формат/Информация : Audio Coding 3
Расширение режима : CM (complete main)
Параметр Endianness формата : Big
Идентификатор кодека : 2000
Продолжительность : 1 ч. 10 м.
Вид битрейта : Постоянный
Битрейт : 448 Кбит/сек
Каналы : 6 каналов
Расположение каналов : Front: L C R, Side: L R, LFE
Частота : 48,0 КГц
Битовая глубина : 16 бит
Метод сжатия : С потерями
Размер потока : 227 Мбайт (15%)
Выравнивание : Разделение по промежуткам
Продолжительность промежутка : 42 мс. (1,00 видеокадр)
Время предзагрузки промежутка : 500 мс.
Аудио #3
Идентификатор : 3
Формат : AC-3
Формат/Информация : Audio Coding 3
Расширение режима : CM (complete main)
Параметр Endianness формата : Big
Идентификатор кодека : 2000
Продолжительность : 1 ч. 10 м.
Вид битрейта : Постоянный
Битрейт : 448 Кбит/сек
Каналы : 6 каналов
Расположение каналов : Front: L C R, Side: L R, LFE
Частота : 48,0 КГц
Битовая глубина : 16 бит
Метод сжатия : С потерями
Размер потока : 227 Мбайт (15%)
Выравнивание : Разделение по промежуткам
Продолжительность промежутка : 42 мс. (1,00 видеокадр)
Время предзагрузки промежутка : 500 мс.
-
Скачать

Скачать торрент! Красавица и чудовище: Чудесное Рождество / Beauty and the Beast: The Enchanted Christmas (Эндрю Найт / Andrew Knight) [1997, Мультфильм, семейный, музыка, BDRip] Dub + MVO + Original + subs (Rus, Eng)

Как скачивать? · Что такое торрент? · Рейтинг и ограничения

Сайт не распространяет и не хранит электронные версии произведений, а лишь предоставляет доступ к создаваемому пользователями каталогу ссылок на торрент-файлы, которые содержат только списки хеш-сумм

[Профиль] [ЛС]
Показать сообщения:    
Ответить на тему

Текущее время: Сегодня 18:59

Часовой пояс: GMT + 4



Вы не можете начинать темы
Вы не можете отвечать на сообщения
Вы не можете редактировать свои сообщения
Вы не можете удалять свои сообщения
Вы не можете голосовать в опросах
Вы не можете прикреплять файлы к сообщениям
Вы не можете скачивать файлы