Девочки из Эквестрии / My Little Pony. Equestria Girls (Джэйсон Тиссен / Jason Thiessen) [2013, приключения, комедия, фэнтези, BDRip] Dub (Карусель)

Ответить на тему
 
Автор Сообщение

user ®

Стаж: 11 лет

Сообщений: 15145

Пост Пост: #1 от 05-Янв-2014 18:05

[Цитировать]

Девочки из Эквестрии / My Little Pony. Equestria Girls Страна: США, Канада
Жанр: приключения, комедия, фэнтези
Продолжительность: 01:13:17
Год выпуска: 2013
Перевод: Профессиональный (дублированный) (Сэмпл)
Озвучка: Телеканал Карусель
Русские субтитры: нет
Режиссёр: Джэйсон Тиссен / Jason Thiessen
Роли озвучивали: Тара Стронг, Эшли Болл, Андреа Либман, Табита Сен-Жермен, Кэти Уэслак, Николь Оливер и другие.
Роли дублировали: Ольга Голованова, Лариса Брохман, Елена Чебатуркина, Дарья Фролова, Ольга Шорохова, Никита Прозоровский, Евгений Вальц.
Студия: Hasbro Studios, DHX Media
Описание: Захватывающие приключения Сумеречной Искорки, принявшей облик девочки, в мире людей. Эта история начинается с того, что пони по имени Сансет Шиммер появляется из волшебного зеркала. Она намерена украсть магическую корону Искорки, без которой нарушится баланс Элемента Гармонии. Пони дерутся за корону, она отлетает в зеркало и пропадает, Сансет Шиммер следует за ней. От принцессы Селестии Искорка узнает, что волшебное зеркало ведет в другой мир. Наставница поручает любимой ученице отправиться за пони-похитительницей, чтобы вернуть драгоценную корону. Пройдя через зеркало, Искорка и Спайк оказываются в вымышленном мире, населённом людьми. Пони принимает облик девочки-подростка, а дракончик — облик собаки. В незнакомом мире героине предстоит поступить в старшую школу и познакомиться с девочками, которые напоминают ей оставшихся в Эквестрии подруг, — Рарити, Флаттершай, Эпплджек, Радугу Дэш и Пинки Пай. С их помощью Искорка постарается выполнить главную миссию своего путешествия — отыскать и вернуть пропавшую корону.
Рейтинг:
Качество: BDRip (рип с [BD-ISO])
Формат: AVI
Видео: XviD, 720x400, 23.976 fps, ~2017 kbps
Аудио 1 Rus: AC3 48 kHz, 2 ch, 192 kbps
Аудио 2 Eng: AC3 48 kHz, 6 ch, 448 kbps
Субтитры: отсутствуют

Скриншоты

Подробные технические данные

Полное имя : D:\Video\Mults\mlp.equestria.girls.2013.bdrip.dub.eng.aviФормат : AVIФормат/Информация : Audio Video InterleaveРазмер файла : 1,37 ГбайтПродолжительность : 1 ч. 13 м.Общий поток : 2671 Кбит/секПрограмма кодирования : VirtualDubMod 1.5.10.2 (build 2540/release)Библиотека кодирования : VirtualDubMod build 2540/release
ВидеоИдентификатор : 0Формат : MPEG-4 VisualПрофиль формата : Advanced Simple@L5Параметр BVOP формата : НетПараметр QPel формата : НетПараметр GMC формата : Без точки переходаПараметр матрицы формата : ВыборочнаяИдентификатор кодека : XVIDИдентификатор кодека/Подсказка : XviDПродолжительность : 1 ч. 13 м.Битрейт : 2017 Кбит/секШирина : 720 пикселейВысота : 400 пикселейСоотношение сторон : 16:9Частота кадров : 23,976 кадра/секЦветовое пространство : YUVСубдискретизация насыщенности : 4:2:0Битовая глубина : 8 битТип развёртки : ПрогрессивнаяМетод сжатия : С потерямиБит/(Пиксели*Кадры) : 0.292Размер потока : 1,03 Гбайт (76%)Библиотека кодирования : XviD 64
Аудио #1Идентификатор : 1Формат : AC-3Формат/Информация : Audio Coding 3Расширение режима : CM (complete main)Параметр Endianness формата : BigИдентификатор кодека : 2000Продолжительность : 1 ч. 13 м.Вид битрейта : ПостоянныйБитрейт : 192 Кбит/секКаналы : 2 каналаРасположение каналов : Front: L RЧастота : 48,0 КГцБитовая глубина : 16 битМетод сжатия : С потерямиРазмер потока : 101 Мбайт (7%)Выравнивание : Разделение по промежуткамПродолжительность промежутка : 42 мс. (1,00 видеокадр)Время предзагрузки промежутка : 500 мс.
Аудио #2Идентификатор : 2Формат : AC-3Формат/Информация : Audio Coding 3Расширение режима : CM (complete main)Параметр Endianness формата : BigИдентификатор кодека : 2000Продолжительность : 1 ч. 13 м.Вид битрейта : ПостоянныйБитрейт : 448 Кбит/секКаналы : 6 каналовРасположение каналов : Front: L C R, Side: L R, LFEЧастота : 48,0 КГцБитовая глубина : 16 битМетод сжатия : С потерямиРазмер потока : 235 Мбайт (17%)Выравнивание : Разделение по промежуткамПродолжительность промежутка : 42 мс. (1,00 видеокадр)Время предзагрузки промежутка : 500 мс.
Скачать

Скачать торрент! Девочки из Эквестрии / My Little Pony. Equestria Girls (Джэйсон Тиссен / Jason Thiessen) [2013, приключения, комедия, фэнтези, BDRip] Dub (Карусель)

Как скачивать? · Что такое торрент? · Рейтинг и ограничения

Сайт не распространяет и не хранит электронные версии произведений, а лишь предоставляет доступ к создаваемому пользователями каталогу ссылок на торрент-файлы, которые содержат только списки хеш-сумм

[Профиль] [ЛС]
Показать сообщения:    
Ответить на тему

Текущее время: Сегодня 19:39

Часовой пояс: GMT + 4



Вы не можете начинать темы
Вы не можете отвечать на сообщения
Вы не можете редактировать свои сообщения
Вы не можете удалять свои сообщения
Вы не можете голосовать в опросах
Вы не можете прикреплять файлы к сообщениям
Вы не можете скачивать файлы