Король Техаса / King of Texas (Ули Эдел / Uli Edel) [2002, США, драма, вестерн, BDRip 720p] DVO + Original (Eng) + Sub (Eng)

Ответить на тему
 
Автор Сообщение

user ®

Стаж: 7 лет 7 месяцев

Сообщений: 20008

Пост Пост: #1 от 04-Янв-2014 18:00

[Цитировать]

Король ТехасаKing of Texas«Between land and power lies the frontier of greed... the saga of family... the heart of drama»- Страна: США
Жанр: драма, вестерн
Год выпуска: 2002
Продолжительность: 01:31:14-Перевод: Профессиональный (двухголосый, закадровый) Екатеренбург АРТ
Оригинальная аудиодорожка: английский
Субтитры: английские
Режиссер: Ули Эдел / Uli Edel
В ролях: Патрик Стюарт, Марша Гей Харден, Лорен Холли, Рой Шайдер, Дэвид Алан Грир, Колм Мини, Патрик Бергин, Мэтт Летчер, Лайам Вейт, Стивен Бауэр, Джули Кокс, Ричард Лайнбэк-Описание: Наследство Джона Лира - его империя, построенная на земле Техаса, которой он правит, не стесняясь в выборе средств. Решив разделить свои владения между тремя дочерьми, Клодией, Сюзанной и Ребеккой, Джон ставит одно условие: наследство получат лишь доказавшие свою любовь к отцу. Сюзанна и Ребекка готовы пойти на любой обман, чтобы обеспечить себе будущее.
А Клодия, осмелившаяся сказать правду, изгоняется из дома. Но ее изгнание лишь разжигает огонь вражды. Завладев имуществом отца, вероломные Сюзанна и Ребекка тут же выгоняют его в дикие прерии. Узнав, что такое предательство, сражаясь с непредсказуемыми силами природы и подосланными убийцами, Джон примиряется с Клодией. Но грехи отца уже пали на головы егодочерей...-

-

Доп. Информация

Сценарий: Уильям Шекспир / William Shakespeare, Стивен Харриган / Stephen Harrigan
Продюсер: Арт Левинсон / Art Levinson, Артуро Брито / Arturo Brito, Роберт Холми ст. / Robert Halmi Sr., Венди Нойс / Wendy Neuss, Патрик Стюарт / Patrick Stewart
Оператор: Пол Эллиот / Paul Elliott, Гильермо Росас / Guillermo Rosas
Композитор: Джон Олтмен / John Altman
Мировая премьера: 23 марта 2002
Релиз на DVD: 4 апреля 2006,
«Монолит»
-Качество: BDRip 720p
Контейнер: MKV
Видео: AVC;1280x720 (16:9);8000 Kbps;25 fps;0,347 bpp
Аудио №1: русский;AC3;192 Kbps;CBR;2 ch;16 bit
Аудио №2: английский;DTS;1510 Kbps;CBR;2 ch;24 bit
Формат субтитров: softsub (SRT)
Навигация по главам: есть-

Сравнения

Source vs Encode


Media Info

Общее
Уникальный идентификатор : 251285187044477050447954557677651824044 (0xBD0BC441EDB8A91883FD33A8DDEB0DAC)
Полное имя : C:\Темп 1\King.Of.Texas.2002.BDRip.720p (1).mkv
Формат : Matroska
Версия формата : Version 2
Размер файла : 6,18 Гбайт
Продолжительность : 1 ч. 31 м.
Общий поток : 9701 Кбит/сек
Дата кодирования : UTC 2013-12-30 19:25:28
Программа кодирования : mkvmerge v5.8.0 ('No Sleep / Pillow') built on Sep 2 2012 15:37:04
Библиотека кодирования : libebml v1.2.3 + libmatroska v1.3.0
Видео
Идентификатор : 1
Формат : AVC
Формат/Информация : Advanced Video Codec
Профиль формата : High@L4.1
Параметр CABAC формата : Да
Параметр ReFrames формата : 7 кадров
Идентификатор кодека : V_MPEG4/ISO/AVC
Продолжительность : 1 ч. 31 м.
Битрейт : 8000 Кбит/сек
Ширина : 1280 пикселей
Высота : 720 пикселей
Соотношение сторон : 16:9
Режим частоты кадров : Постоянный
Частота кадров : 25,000 кадров/сек
Цветовое пространство : YUV
Субдискретизация насыщенности : 4:2:0
Битовая глубина : 8 бит
Тип развёртки : Прогрессивная
Бит/(Пиксели*Кадры) : 0.347
Размер потока : 4,98 Гбайт (80%)
Библиотека кодирования : x264 core 138 r2358 9e941d1
Настройки программы : cabac=1 / ref=8 / deblock=1:-1:-1 / analyse=0x3:0x113 / me=umh / subme=10 / psy=1 / psy_rd=1.00:0.15 / mixed_ref=1 / me_range=48 / chroma_me=1 / trellis=2 / 8x8dct=1 / cqm=0 / deadzone=21,11 / fast_pskip=0 / chroma_qp_offset=-3 / threads=12 / lookahead_threads=3 / sliced_threads=0 / nr=0 / decimate=0 / interlaced=0 / bluray_compat=0 / constrained_intra=0 / bframes=13 / b_pyramid=1 / b_adapt=2 / b_bias=0 / direct=3 / weightb=1 / open_gop=0 / weightp=2 / keyint=250 / keyint_min=24 / scenecut=40 / intra_refresh=0 / rc_lookahead=40 / rc=2pass / mbtree=1 / bitrate=8000 / ratetol=1.0 / qcomp=0.60 / qpmin=0 / qpmax=69 / qpstep=4 / cplxblur=20.0 / qblur=0.5 / vbv_maxrate=50000 / vbv_bufsize=62500 / nal_hrd=none / ip_ratio=1.40 / aq=2:1.00
Язык : English
Default : Да
Forced : Нет
Аудио #1
Идентификатор : 2
Формат : AC-3
Формат/Информация : Audio Coding 3
Расширение режима : CM (complete main)
Параметр Endianness формата : Big
Идентификатор кодека : A_AC3
Продолжительность : 1 ч. 31 м.
Вид битрейта : Постоянный
Битрейт : 192 Кбит/сек
Каналы : 2 канала
Расположение каналов : Front: L R
Частота : 48,0 КГц
Битовая глубина : 16 бит
Метод сжатия : С потерями
Размер потока : 125 Мбайт (2%)
Заголовок : Профессиональный (двухголосый, закадровый)
Язык : Russian
Default : Да
Forced : Нет
Аудио #2
Идентификатор : 3
Формат : DTS
Формат/Информация : Digital Theater Systems
Режим : 16
Параметр Endianness формата : Big
Идентификатор кодека : A_DTS
Продолжительность : 1 ч. 31 м.
Вид битрейта : Постоянный
Битрейт : 1509 Кбит/сек
Каналы : 2 канала
Расположение каналов : Front: L R
Частота : 48,0 КГц
Битовая глубина : 24 бит
Метод сжатия : С потерями
Размер потока : 985 Мбайт (16%)
Заголовок : English
Язык : English
Default : Нет
Forced : Нет
Текст
Идентификатор : 4
Формат : UTF-8
Идентификатор кодека : S_TEXT/UTF8
Идентификатор кодека/Информация : UTF-8 Plain Text
Заголовок : English
Язык : English
Default : Нет
Forced : Нет
Меню
00:00:00.000 : :Chapter 01
00:09:05.000 : :Chapter 02
00:20:09.000 : :Chapter 03
00:30:10.000 : :Chapter 04
00:39:37.000 : :Chapter 05
00:49:52.000 : :Chapter 06
00:58:08.000 : :Chapter 07
01:10:50.000 : :Chapter 08
01:19:35.000 : :Chapter 09
01:30:15.000 : :Chapter 10

х264

x264 [info]: frame I:1133 Avg QP:13.99 size:157057
x264 [info]: frame P:30962 Avg QP:17.29 size: 70170
x264 [info]: frame B:104755 Avg QP:19.49 size: 29805
x264 [info]: consecutive B-frames: 2.5% 4.1% 9.6% 21.0% 14.8% 35.5% 7.3% 2.2% 1.1% 0.8% 0.3% 0.3% 0.3% 0.3%
x264 [info]: mb I I16..4: 9.3% 72.1% 18.6%
x264 [info]: mb P I16..4: 3.2% 25.0% 3.4% P16..4: 31.3% 22.2% 12.4% 0.0% 0.0% skip: 2.5%
x264 [info]: mb B I16..4: 0.4% 4.7% 0.5% B16..8: 36.7% 13.5% 3.5% direct:14.9% skip:25.7% L0:39.0% L1:39.0% BI:22.0%
x264 [info]: 8x8 transform intra:80.5% inter:60.7%
x264 [info]: direct mvs spatial:98.9% temporal:1.1%
x264 [info]: coded y,uvDC,uvAC intra: 84.7% 66.2% 33.8% inter: 44.5% 34.9% 8.0%
x264 [info]: i16 v,h,dc,p: 42% 14% 16% 28%
x264 [info]: i8 v,h,dc,ddl,ddr,vr,hd,vl,hu: 12% 10% 13% 8% 11% 11% 10% 11% 13%
x264 [info]: i4 v,h,dc,ddl,ddr,vr,hd,vl,hu: 13% 9% 6% 8% 13% 14% 12% 12% 13%
x264 [info]: i8c dc,h,v,p: 42% 25% 20% 13%
x264 [info]: Weighted P-Frames: Y:8.8% UV:2.3%
x264 [info]: ref P L0: 54.0% 12.5% 14.4% 7.3% 5.0% 3.6% 2.9% 0.3% 0.0%
x264 [info]: ref B L0: 81.6% 9.0% 4.5% 2.3% 1.6% 0.8%
x264 [info]: ref B L1: 92.8% 7.2%
x264 [info]: kb/s:7998.16

Скриншоты

Скачать

Скачать торрент!

Как скачивать? · Что такое торрент? · Рейтинг и ограничения

Сайт не распространяет и не хранит электронные версии произведений, а лишь предоставляет доступ к создаваемому пользователями каталогу ссылок на торрент-файлы, которые содержат только списки хеш-сумм

[Профиль] [ЛС]
Показать сообщения:    
Ответить на тему

Текущее время: Сегодня 06:16

Часовой пояс: GMT + 4



Вы не можете начинать темы
Вы не можете отвечать на сообщения
Вы не можете редактировать свои сообщения
Вы не можете удалять свои сообщения
Вы не можете голосовать в опросах
Вы не можете прикреплять файлы к сообщениям
Вы не можете скачивать файлы