Бойфренд из будущего / About Time (Ричард Кёртис / Richard Curtis) [2013, Великобритания, фантастика, драма, комедия, BDRip 720p] Dub + Sub Rus,Eng + Original Eng

Ответить на тему
 
Автор Сообщение

user ®

Стаж: 7 лет 7 месяцев

Сообщений: 20008

Пост Пост: #1 от 04-Янв-2014 18:00

[Цитировать]

Бойфренд из будущего / About Time Страна: Великобритания
Студия: Translux, Working Title Films
Жанр: фантастика, драма, комедия
Год выпуска: 2013
Продолжительность: 02:03:22
Перевод: Профессиональный (дублированный) Blu-Ray
Cубтитры: русские(forced,full),украинские,английские
Оригинальная аудиодорожка: английский
Режиссер: Ричард Кёртис / Richard Curtis

В ролях: Рэйчел МакАдамс, Донал Глисон, Билл Найи, Том Холландер, Марго Робби, Лидия Уилсон, Линдси Дункан, Ричард Кордери, Джош МакГуайр, Уилл Меррик

Описание: Тиму повезло — он молодой, симпатичный, многообещающий адвокат, а еще он… умеет перемещаться во времени. И чтобы очаровать девушку своей мечты, он готов повторять первое свидание вновь и вновь. Воистину, любовь с первого взгляда не всегда выходит с первого раза…

Тип релиза: BDRip 720p[WiKi]
Контейнер: MKV
Видео: AVC, 1280x534, 5642 Kbps, 23.976 fps
Аудио1:Russian: 48 kHz, DTS, 3/2 (L,C,R,l,r) + LFE ch, ~768.00 kbps avg |Blu-ray|
Аудио2:English: 48 kHz, DTS, 3/2 (L,C,R,l,r) + LFE ch, ~1536 kbps avg |Original|
Чаптеры:есть

MediaInfo

General
Unique ID : 213851706329134049243374639737842720719 (0xA0E2572A34AB49C79573D97DBB685FCF)
Complete name : D:\Дороги\About.Time.2013.720p.BluRay.x264--Talian-.mkv
Format : Matroska
Format version : Version 2
File size : 6.83 GiB
Duration : 2h 3mn
Overall bit rate : 7 921 Kbps
Movie name : -Talian-
Encoded date : UTC 2014-01-02 10:58:58
Writing application : mkvmerge v5.7.0 ('The Whirlwind') built on Jul 8 2012 20:08:51
Writing library : libebml v1.2.3 + libmatroska v1.3.0
Video
ID : 1
Format : AVC
Format/Info : Advanced Video Codec
Format profile : High@L4.1
Format settings, CABAC : Yes
Format settings, ReFrames : 12 frames
Codec ID : V_MPEG4/ISO/AVC
Duration : 2h 3mn
Bit rate : 5 642 Kbps
Width : 1 280 pixels
Height : 534 pixels
Display aspect ratio : 2.40:1
Frame rate : 23.976 fps
Color space : YUV
Chroma subsampling : 4:2:0
Bit depth : 8 bits
Scan type : Progressive
Bits/(Pixel*Frame) : 0.344
Stream size : 4.74 GiB (69%)
Title : WiKi
Writing library : x264 core 136 r2348+704+51 d1baef6 tMod [8-bit@all X86_64]
Encoding settings : cabac=1 / ref=12 / deblock=1:-2:-2 / analyse=0x3:0x133 / me=umh / subme=11 / psy=1 / fade_compensate=0.00 / psy_rd=1.05:0.05 / mixed_ref=1 / me_range=32 / chroma_me=1 / trellis=2 / 8x8dct=1 / cqm=0 / deadzone=21,11 / fast_pskip=0 / chroma_qp_offset=-3 / threads=12 / lookahead_threads=2 / sliced_threads=0 / nr=0 / decimate=0 / interlaced=0 / bluray_compat=0 / constrained_intra=0 / fgo=0 / bframes=8 / b_pyramid=2 / b_adapt=2 / b_bias=0 / direct=3 / weightb=1 / open_gop=0 / weightp=2 / keyint=250 / keyint_min=23 / scenecut=40 / intra_refresh=0 / rc_lookahead=100 / rc=2pass / mbtree=1 / bitrate=5642 / ratetol=1.0 / qcomp=0.70 / qpmin=0:0:0 / qpmax=69:69:69 / qpstep=4 / cplxblur=20.0 / qblur=0.5 / ip_ratio=1.40 / aq=3:0.90 / aq-sensitivity=10.00 / aq-factor=1.00:1.00:1.00 / aq2=0 / aq3=0
Language : English
Default : Yes
Forced : No
Matrix coefficients : BT.709-5, BT.1361, IEC 61966-2-4 709, SMPTE RP177
Audio #1
ID : 2
Format : DTS
Format/Info : Digital Theater Systems
Codec ID : A_DTS
Duration : 2h 3mn
Bit rate mode : Constant
Bit rate : 755 Kbps
Channel(s) : 6 channels
Channel positions : Front: L C R, Side: L R, LFE
Sampling rate : 48.0 KHz
Bit depth : 24 bits
Compression mode : Lossy
Stream size : 666 MiB (10%)
Title : DUB-Blu-ray
Language : Russian
Default : Yes
Forced : No
Audio #2
ID : 3
Format : DTS
Format/Info : Digital Theater Systems
Codec ID : A_DTS
Duration : 2h 3mn
Bit rate mode : Constant
Bit rate : 1 510 Kbps
Channel(s) : 6 channels
Channel positions : Front: L C R, Side: L R, LFE
Sampling rate : 48.0 KHz
Bit depth : 24 bits
Compression mode : Lossy
Stream size : 1.30 GiB (19%)
Title : Original
Language : English
Default : No
Forced : No
Text #1
ID : 4
Format : UTF-8
Codec ID : S_TEXT/UTF8
Codec ID/Info : UTF-8 Plain Text
Title : Sub-forced
Language : Russian
Default : Yes
Forced : No
Text #2
ID : 5
Format : UTF-8
Codec ID : S_TEXT/UTF8
Codec ID/Info : UTF-8 Plain Text
Title : Sub
Language : Russian
Default : No
Forced : No
Text #3
ID : 6
Format : UTF-8
Codec ID : S_TEXT/UTF8
Codec ID/Info : UTF-8 Plain Text
Title : Sub
Language : Ukrainian
Default : No
Forced : No
Text #4
ID : 7
Format : UTF-8
Codec ID : S_TEXT/UTF8
Codec ID/Info : UTF-8 Plain Text
Title : Sub
Language : English
Default : No
Forced : No
Menu
00:00:00.000 : en:00:00:00.000
00:03:58.071 : en:00:03:58.071
00:10:11.903 : en:00:10:11.903
00:17:26.295 : en:00:17:26.295
00:20:38.112 : en:00:20:38.112
00:26:04.396 : en:00:26:04.396
00:32:44.004 : en:00:32:44.004
00:40:26.591 : en:00:40:26.591
00:45:17.965 : en:00:45:17.965
00:49:43.439 : en:00:49:43.439
00:54:50.871 : en:00:54:50.871
01:03:44.529 : en:01:03:44.529
01:09:29.374 : en:01:09:29.374
01:16:28.000 : en:01:16:28.000
01:21:35.724 : en:01:21:35.724
01:27:24.448 : en:01:27:24.448
01:34:52.812 : en:01:34:52.812
01:43:48.848 : en:01:43:48.848
01:49:32.316 : en:01:49:32.316
01:57:03.141 : en:01:57:03.141

Скриншоты



Скачать

Скачать торрент!

Как скачивать? · Что такое торрент? · Рейтинг и ограничения

Сайт не распространяет и не хранит электронные версии произведений, а лишь предоставляет доступ к создаваемому пользователями каталогу ссылок на торрент-файлы, которые содержат только списки хеш-сумм

[Профиль] [ЛС]
Показать сообщения:    
Ответить на тему

Текущее время: Сегодня 14:34

Часовой пояс: GMT + 4



Вы не можете начинать темы
Вы не можете отвечать на сообщения
Вы не можете редактировать свои сообщения
Вы не можете удалять свои сообщения
Вы не можете голосовать в опросах
Вы не можете прикреплять файлы к сообщениям
Вы не можете скачивать файлы