Ледяной / The Iceman (Ариэль Вромен / Ariel Vromen) [2012 г., США, детектив, драма, биография, BDRip 1080p] MVO (R5) + MVO + DVO (НТВ+) + 2х AVO (Гаврилов, Немахов) + VO (Гаевский) + Original (Eng) + Subs (Rus, Eng)

Ответить на тему
 
Автор Сообщение

user ®

Стаж: 7 лет 7 месяцев

Сообщений: 20008

Пост Пост: #1 от 04-Янв-2014 18:00

[Цитировать]

Ледяной / The Iceman

-
-Страна: США
Студия: Bleiberg Entertainment, Millennium Films, RabbitBandini Productions
Жанр: детектив, драма, биография
Год выпуска: 2012
Продолжительность: 01:45:27--Перевод 1: Профессиональный (многоголосый закадровый) R5
Перевод 2: Профессиональный (многоголосый закадровый)
Перевод 3: Профессиональный (двухголосый закадровый) НТВ+
Перевод 4: Авторский (одноголосый закадровый) А. Гаврилов
Перевод 5: Авторский (одноголосый закадровый) Ю. Немахов
Перевод 6: Одноголосый закадровый Е. Гаевский
Cубтитры: русские (krilatkin, AkI3aIPuyC), английские SDH
Оригинальная аудиодорожка: английский--Режиссер: Ариэль Вромен / Ariel Vromen
В ролях: Майкл Шеннон, Вайнона Райдер, Рэй Лиотта, Крис Эванс, Дэвид Швиммер, Роберт Дави, Дэнни А. Абекейзер, Джон Вентимилья, Райан О’Нан, МакКали Миллер--Описание: Криминальный байопик проливает свет на историю о наемном убийце Ричарде Куклински, сумевшем долгое время параллельно вести две абсолютно взаимоисключающие жизни: с одной стороны он жестокий киллер, с другой — образцовый семьянин.--imdb | kinopoisk | Сэмпл--Тип релиза: BDRip 1080p [The Iceman 2012 1080p BluRay DD5.1 x264-NTb]
Контейнер: MKV
Видео: MPEG-4 AVC / 12,4 Mbps / 1920x1080 / 23,976 fps / 16:9 / High Profile 4.1
Аудио 1: Russian AC3 / 5.1 / 48 kHz / 448 kbps / 16 bits |MVO, R5|
Аудио 2: Russian AC3 / 5.1 / 48 kHz / 448 kbps / 16 bits |MVO|
Аудио 3: Russian AC3 / 2.0 / 48 kHz / 192 kbps / 16 bits |DVO, НТВ+|
Аудио 4: Russian DTS / 5.1 / 48 kHz / 1509 kbps / 16 bits |А. Гаврилов|
Аудио 5: Russian DTS / 5.1 / 48 kHz / 1509 kbps / 16 bits |Ю. Немахов|
Аудио 6: Russian DTS / 5.1 / 48 kHz / 1509 kbps / 16 bits |Е. Гаевский|
Аудио 5: English DTS / 5.1 / 48 kHz / 1509 kbps / 16 bits |original|
Формат субтитров: softsub [SRT]

MediaInfo

Общее
Уникальный идентификатор                 : 178945289647033115596205017915268247902 (0x869F9BF2D0DFD062AF8D8BE63BD7B15E)
Полное имя                               : G:\HD\Ледяной.2012.BDRip.(1080p).mkv
Формат                                   : Matroska
Версия формата                           : Version 2
Размер файла                             : 14,7 Гбайт
Продолжительность                        : 1 ч. 45 м.
Общий поток                              : 19,9 Мбит/сек
Дата кодирования                         : UTC 2014-01-02 16:57:13
Программа кодирования                    : mkvmerge v5.8.0 ('No Sleep / Pillow') built on Sep  2 2012 15:37:04
Библиотека кодирования                   : libebml v1.2.3 + libmatroska v1.3.0
Attachment                               : Yes
Видео
Идентификатор                            : 1
Формат                                   : AVC
Формат/Информация                        : Advanced Video Codec
Профиль формата                          : High@L4.1
Параметр CABAC формата                   : Да
Параметр ReFrames формата                : 4 кадра
Идентификатор кодека                     : V_MPEG4/ISO/AVC
Продолжительность                        : 1 ч. 45 м.
Битрейт                                  : 12,4 Мбит/сек
Ширина                                   : 1920 пикселей
Высота                                   : 1080 пикселей
Соотношение сторон                       : 16:9
Режим частоты кадров                     : Постоянный
Частота кадров                           : 23,976 кадра/сек
Цветовое пространство                    : YUV
Субдискретизация насыщенности            : 4:2:0
Битовая глубина                          : 8 бит
Тип развёртки                            : Прогрессивная
Бит/(Пиксели*Кадры)                      : 0.250
Размер потока                            : 9,16 Гбайт (62%)
Заголовок                                : The Iceman 2012 1080p BluRay DD5.1 x264-NTb
Библиотека кодирования                   : x264 core 136 r2348+704+51 d1baef6 tMod [8-bit@4:2:0 X86]
Настройки программы                      : cabac=1 / ref=4 / deblock=1:-3:-3 / analyse=0x3:0x113 / me=umh / subme=10 / psy=1 / fade_compensate=0.00 / psy_rd=1.08:0.05 / mixed_ref=1 / me_range=32 / chroma_me=1 / trellis=2 / 8x8dct=1 / cqm=0 / deadzone=21,11 / fast_pskip=0 / chroma_qp_offset=-3 / threads=6 / lookahead_threads=1 / sliced_threads=0 / nr=0 / decimate=0 / interlaced=0 / bluray_compat=0 / constrained_intra=0 / fgo=0 / bframes=8 / b_pyramid=2 / b_adapt=2 / b_bias=0 / direct=3 / weightb=1 / open_gop=0 / weightp=2 / keyint=250 / keyint_min=23 / scenecut=40 / intra_refresh=0 / rc_lookahead=60 / rc=crf / mbtree=0 / crf=18.0000 / qcomp=0.72 / qpmin=0:0:0 / qpmax=69:69:69 / qpstep=4 / vbv_maxrate=50000 / vbv_bufsize=62500 / crf_max=0.0 / nal_hrd=none / ip_ratio=1.20 / pb_ratio=1.10 / aq=3:0.70 / aq-sensitivity=10.00 / aq-factor=1.00:1.00:1.00 / aq2=0 / aq3=0
Язык                                     : English
Default                                  : Да
Forced                                   : Нет
Аудио #1
Идентификатор                            : 2
Формат                                   : AC-3
Формат/Информация                        : Audio Coding 3
Расширение режима                        : CM (complete main)
Параметр Endianness формата              : Big
Идентификатор кодека                     : A_AC3
Продолжительность                        : 1 ч. 45 м.
Вид битрейта                             : Постоянный
Битрейт                                  : 448 Кбит/сек
Каналы                                   : 6 каналов
Расположение каналов                     : Front: L C R, Side: L R, LFE
Частота                                  : 48,0 КГц
Битовая глубина                          : 16 бит
Метод сжатия                             : С потерями
Размер потока                            : 338 Мбайт (2%)
Заголовок                                : MVO, R5
Язык                                     : Russian
Default                                  : Да
Forced                                   : Нет
Аудио #2
Идентификатор                            : 3
Формат                                   : AC-3
Формат/Информация                        : Audio Coding 3
Расширение режима                        : CM (complete main)
Параметр Endianness формата              : Big
Идентификатор кодека                     : A_AC3
Продолжительность                        : 1 ч. 45 м.
Вид битрейта                             : Постоянный
Битрейт                                  : 448 Кбит/сек
Каналы                                   : 6 каналов
Расположение каналов                     : Front: L C R, Side: L R, LFE
Частота                                  : 48,0 КГц
Битовая глубина                          : 16 бит
Метод сжатия                             : С потерями
Размер потока                            : 338 Мбайт (2%)
Заголовок                                : MVO
Язык                                     : Russian
Default                                  : Нет
Forced                                   : Нет
Аудио #3
Идентификатор                            : 4
Формат                                   : AC-3
Формат/Информация                        : Audio Coding 3
Расширение режима                        : CM (complete main)
Параметр Endianness формата              : Big
Идентификатор кодека                     : A_AC3
Продолжительность                        : 1 ч. 45 м.
Вид битрейта                             : Постоянный
Битрейт                                  : 192 Кбит/сек
Каналы                                   : 2 канала
Расположение каналов                     : Front: L R
Частота                                  : 48,0 КГц
Битовая глубина                          : 16 бит
Метод сжатия                             : С потерями
Размер потока                            : 145 Мбайт (1%)
Заголовок                                : DVO, НТВ+
Язык                                     : Russian
Default                                  : Нет
Forced                                   : Нет
Аудио #4
Идентификатор                            : 5
Формат                                   : DTS
Формат/Информация                        : Digital Theater Systems
Режим                                    : 16
Параметр Endianness формата              : Big
Идентификатор кодека                     : A_DTS
Продолжительность                        : 1 ч. 45 м.
Вид битрейта                             : Постоянный
Битрейт                                  : 1509 Кбит/сек
Каналы                                   : 6 каналов
Расположение каналов                     : Front: L C R, Side: L R, LFE
Частота                                  : 48,0 КГц
Битовая глубина                          : 16 бит
Метод сжатия                             : С потерями
Размер потока                            : 1,11 Гбайт (8%)
Заголовок                                : А. Гаврилов
Язык                                     : Russian
Default                                  : Нет
Forced                                   : Нет
Аудио #5
Идентификатор                            : 6
Формат                                   : DTS
Формат/Информация                        : Digital Theater Systems
Режим                                    : 16
Параметр Endianness формата              : Big
Идентификатор кодека                     : A_DTS
Продолжительность                        : 1 ч. 45 м.
Вид битрейта                             : Постоянный
Битрейт                                  : 1509 Кбит/сек
Каналы                                   : 6 каналов
Расположение каналов                     : Front: L C R, Side: L R, LFE
Частота                                  : 48,0 КГц
Битовая глубина                          : 16 бит
Метод сжатия                             : С потерями
Размер потока                            : 1,11 Гбайт (8%)
Заголовок                                : Ю. Немахов
Язык                                     : Russian
Default                                  : Нет
Forced                                   : Нет
Аудио #6
Идентификатор                            : 7
Формат                                   : DTS
Формат/Информация                        : Digital Theater Systems
Режим                                    : 16
Параметр Endianness формата              : Big
Идентификатор кодека                     : A_DTS
Продолжительность                        : 1 ч. 45 м.
Вид битрейта                             : Постоянный
Битрейт                                  : 1509 Кбит/сек
Каналы                                   : 6 каналов
Расположение каналов                     : Front: L C R, Side: L R, LFE
Частота                                  : 48,0 КГц
Битовая глубина                          : 16 бит
Метод сжатия                             : С потерями
Размер потока                            : 1,11 Гбайт (8%)
Заголовок                                : Е. Гаевский
Язык                                     : Russian
Default                                  : Нет
Forced                                   : Нет
Аудио #7
Идентификатор                            : 8
Формат                                   : DTS
Формат/Информация                        : Digital Theater Systems
Режим                                    : 16
Параметр Endianness формата              : Big
Идентификатор кодека                     : A_DTS
Продолжительность                        : 1 ч. 45 м.
Вид битрейта                             : Постоянный
Битрейт                                  : 1509 Кбит/сек
Каналы                                   : 6 каналов
Расположение каналов                     : Front: L C R, Side: L R, LFE
Частота                                  : 48,0 КГц
Битовая глубина                          : 16 бит
Метод сжатия                             : С потерями
Размер потока                            : 1,11 Гбайт (8%)
Язык                                     : English
Default                                  : Нет
Forced                                   : Нет
Текст #1
Идентификатор                            : 9
Формат                                   : UTF-8
Идентификатор кодека                     : S_TEXT/UTF8
Идентификатор кодека/Информация          : UTF-8 Plain Text
Заголовок                                : krilatkin, AkI3aIPuyC
Язык                                     : Russian
Default                                  : Нет
Forced                                   : Нет
Текст #2
Идентификатор                            : 10
Формат                                   : UTF-8
Идентификатор кодека                     : S_TEXT/UTF8
Идентификатор кодека/Информация          : UTF-8 Plain Text
Заголовок                                : SDH
Язык                                     : English
Default                                  : Нет
Forced                                   : Нет
Меню
00:00:00.000                             : :Chapter 01
00:08:11.491                             : :Chapter 02
00:17:14.575                             : :Chapter 03
00:24:57.829                             : :Chapter 04
00:35:08.272                             : :Chapter 05
00:45:57.629                             : :Chapter 06
00:56:20.377                             : :Chapter 07
01:04:05.424                             : :Chapter 08
01:13:03.587                             : :Chapter 09
01:19:42.569                             : :Chapter 10
01:31:17.054                             : :Chapter 11
01:39:52.403                             : :Chapter 12

Скриншоты


Дополнительно

Перевод №1 взят с [url=http://***/forum/viewtopic.php?t=4616421]этой раздачи[/url] thx: vlaa8
За перевод №2 спасибо avproh
Перевод Е. Гаевского доступен благодаря mihey10 и DREADG, работа со звуком DREADG.
За перевода А. Гаврилова спасибо пользователям форума е180: oleg-k, foxlight, Guyver, luka69, xerman13, Nadoelo, Kastro, пуля, Chistobaev, Iceman, bla_, dir, mitabrev, SavineX78, YoGuRt-82, masta, Диммон.
За перевода Ю. Немахова спасибо пользователям форума е180: oleg-k, пуля, Larry, tide, foxlight, zaq-qaz, Nadoelo, xerman13, carnivale, Ken, Эдуард, Foots, Марлон, Slimka, Hattori Hanzo, mihaildns, zeleniy, sawyer4, luka69, Мr. Di, maximus10-99, Iceman, 2vova2, YoGuRt-82, vik19662007, ARTYq, masta.
Русские субтитры содержат ненормативную лексику
Скачать

Скачать торрент!

Как скачивать? · Что такое торрент? · Рейтинг и ограничения

Сайт не распространяет и не хранит электронные версии произведений, а лишь предоставляет доступ к создаваемому пользователями каталогу ссылок на торрент-файлы, которые содержат только списки хеш-сумм

[Профиль] [ЛС]
Показать сообщения:    
Ответить на тему

Текущее время: Сегодня 15:34

Часовой пояс: GMT + 4



Вы не можете начинать темы
Вы не можете отвечать на сообщения
Вы не можете редактировать свои сообщения
Вы не можете удалять свои сообщения
Вы не можете голосовать в опросах
Вы не можете прикреплять файлы к сообщениям
Вы не можете скачивать файлы