Бойфренд из будущего / About Time (Ричард Кёртис / Richard Curtis) [2013, Великобритания, фантастика, драма, комедия, BDRip 1080p] Dub + Original Eng + Sub rus, eng

Ответить на тему
 
Автор Сообщение

user ®

Стаж: 7 лет 7 месяцев

Сообщений: 20008

Пост Пост: #1 от 04-Янв-2014 18:00

[Цитировать]

Бойфренд из будущего / About Time
Страна: Великобритания
Жанр: фантастика, драма, комедия
Год выпуска: 2013
Продолжительность: 02:03:22
Перевод: Профессиональный (дублированный)
Cубтитры: русские, английские
Оригинальная аудиодорожка: английский
Режиссер: Ричард Кёртис / Richard Curtis
В ролях: Донал Глисон, Рэйчел МакАдамс, Билл Найи, Том Холландер, Марго Робби, Лидия Уилсон, Линдси Дункан, Ричард Кордери, Джош МакГуайр, Уилл Меррик и др.
Описание: Тим – из тех, кого девушки обычно не замечают. Он узнает, что от отца в наследство ему достался уникальный дар – способность перемещаться во времени. Молодой человек решает тут же воспользоваться открывающимися возможностями для решения личных проблем. Он намерен сделать все, чтобы изменить ситуацию к лучшему...
Доп. информация:

СЭМПЛ
Тип релиза: BDRip 1080p
Контейнер: MKV
Видео: 1920x800p, 23.976 fps, x264, 9500 kbps
Аудио:
1. Русский DTS 5.1, 48 khz, 768 kbps |Дубляж|
2. Английский DTS 5.1, 48 khz, 1536 kbps |Original|
3. Английский AC3 2.0, 48 khz, 192 kbps |Commentary|
Cубтитры: русские (форсированные), русские, английские, английские (комментарии) (SRT)
Навигация по главам: есть

Скриншоты

x264 log

x264 [info]: using SAR=1/1
x264 [info]: using cpu capabilities: MMX2 SSE2Fast SSSE3 SSE4.2 AVX AVX2 FMA3 LZCNT BMI2
x264 [info]: profile High, level 4.1
x264 [info]: frame I:1287 Avg QP:13.74 size:280649
x264 [info]: frame P:40757 Avg QP:15.97 size: 87763
x264 [info]: frame B:135429 Avg QP:18.05 size: 35797
x264 [info]: consecutive B-frames: 3.9% 3.9% 9.6% 9.2% 15.8% 47.1% 5.8% 1.1% 1.6% 0.9% 0.8% 0.5%
x264 [info]: mb I I16..4: 16.3% 68.7% 15.1%
x264 [info]: mb P I16..4: 1.7% 14.6% 0.7% P16..4: 32.0% 32.7% 11.7% 1.8% 0.1% skip: 4.8%
x264 [info]: mb B I16..4: 0.1% 1.6% 0.0% B16..8: 38.5% 23.5% 3.6% direct: 7.9% skip:24.8% L0:45.6% L1:43.1% BI:11.3%
x264 [info]: 8x8 transform intra:85.5% inter:56.8%
x264 [info]: direct mvs spatial:98.4% temporal:1.6%
x264 [info]: coded y,uvDC,uvAC intra: 92.5% 96.5% 92.4% inter: 34.9% 43.2% 25.0%
x264 [info]: i16 v,h,dc,p: 47% 4% 10% 40%
x264 [info]: i8 v,h,dc,ddl,ddr,vr,hd,vl,hu: 10% 8% 10% 10% 13% 13% 12% 13% 12%
x264 [info]: i4 v,h,dc,ddl,ddr,vr,hd,vl,hu: 10% 8% 9% 9% 15% 14% 13% 11% 12%
x264 [info]: i8c dc,h,v,p: 60% 12% 13% 15%
x264 [info]: Weighted P-Frames: Y:1.0% UV:0.6%
x264 [info]: ref P L0: 46.9% 7.2% 26.4% 9.0% 9.2% 1.3% 0.0%
x264 [info]: ref B L0: 74.9% 18.2% 5.1% 1.7%
x264 [info]: ref B L1: 92.7% 7.3%
x264 [info]: kb/s:9495.79

MediaInfo

Общее
Уникальный идентификатор : 251605189654701234977271269350463203489 (0xBD49659AB580782081115C1698B368A1)
Полное имя : D:\About.Time.2013.BDRip.1080p.x264.Rus.2xEng.mkv
Формат : Matroska
Версия формата : Version 4 / Version 2
Размер файла : 10,3 Гбайт
Продолжительность : 2 ч. 3 м.
Общий поток : 12,0 Мбит/сек
Название фильма : Released by shurikello
Дата кодирования : UTC 2014-01-03 12:55:20
Программа кодирования : mkvmerge v6.6.0 ('The Edge Of The In Between') built on Dec 1 2013 17:55:00
Библиотека кодирования : libebml v1.3.0 + libmatroska v1.4.1
Видео
Идентификатор : 1
Формат : AVC
Формат/Информация : Advanced Video Codec
Профиль формата : High@L4.1
Параметр CABAC формата : Да
Параметр ReFrames формата : 5 кадров
Идентификатор кодека : V_MPEG4/ISO/AVC
Продолжительность : 2 ч. 3 м.
Битрейт : 9500 Кбит/сек
Ширина : 1920 пикселей
Высота : 800 пикселей
Соотношение сторон : 2,40:1
Режим частоты кадров : Постоянный
Частота кадров : 23,976 кадра/сек
Цветовое пространство : YUV
Субдискретизация насыщенности : 4:2:0
Битовая глубина : 8 бит
Тип развёртки : Прогрессивная
Бит/(Пиксели*Кадры) : 0.258
Размер потока : 7,98 Гбайт (77%)
Библиотека кодирования : x264 core 140 r2377 1ca7bb9
Настройки программы : cabac=1 / ref=5 / deblock=1:-3:-3 / analyse=0x3:0x133 / me=tesa / subme=11 / psy=1 / psy_rd=1.00:0.05 / mixed_ref=1 / me_range=32 / chroma_me=1 / trellis=2 / 8x8dct=1 / cqm=0 / deadzone=21,11 / fast_pskip=0 / chroma_qp_offset=-3 / threads=12 / lookahead_threads=3 / sliced_threads=0 / nr=0 / decimate=0 / interlaced=0 / bluray_compat=0 / constrained_intra=0 / bframes=11 / b_pyramid=2 / b_adapt=2 / b_bias=0 / direct=3 / weightb=1 / open_gop=0 / weightp=2 / keyint=240 / keyint_min=23 / scenecut=40 / intra_refresh=0 / rc_lookahead=40 / rc=2pass / mbtree=0 / bitrate=9500 / ratetol=1.0 / qcomp=0.70 / qpmin=0 / qpmax=69 / qpstep=4 / cplxblur=20.0 / qblur=0.5 / vbv_maxrate=50000 / vbv_bufsize=62500 / nal_hrd=none / filler=0 / ip_ratio=1.40 / pb_ratio=1.30 / aq=2:0.80
Язык : English
Default : Да
Forced : Нет
Аудио #1
Идентификатор : 2
Формат : DTS
Формат/Информация : Digital Theater Systems
Режим : 16
Параметр Endianness формата : Big
Идентификатор кодека : A_DTS
Продолжительность : 2 ч. 3 м.
Вид битрейта : Постоянный
Битрейт : 768 Кбит/сек
Каналы : 6 каналов
Расположение каналов : Front: L C R, Side: L R, LFE
Частота : 48,0 КГц
Битовая глубина : 24 бит
Метод сжатия : С потерями
Размер потока : 678 Мбайт (6%)
Заголовок : Дубляж, DTS 5.1, 768 kbps
Язык : Russian
Default : Да
Forced : Нет
Аудио #2
Идентификатор : 3
Формат : DTS
Формат/Информация : Digital Theater Systems
Режим : 16
Параметр Endianness формата : Big
Идентификатор кодека : A_DTS
Продолжительность : 2 ч. 3 м.
Вид битрейта : Постоянный
Битрейт : 1509 Кбит/сек
Каналы : 6 каналов
Расположение каналов : Front: L C R, Side: L R, LFE
Частота : 48,0 КГц
Битовая глубина : 24 бит
Метод сжатия : С потерями
Размер потока : 1,30 Гбайт (13%)
Заголовок : DTS 5.1, 1536 kbps
Язык : English
Default : Нет
Forced : Нет
Аудио #3
Идентификатор : 4
Формат : AC-3
Формат/Информация : Audio Coding 3
Профиль формата : Dolby Digital
Расширение режима : CM (complete main)
Параметр Endianness формата : Big
Идентификатор кодека : A_AC3
Продолжительность : 2 ч. 3 м.
Вид битрейта : Постоянный
Битрейт : 192 Кбит/сек
Каналы : 2 канала
Расположение каналов : Front: L R
Частота : 48,0 КГц
Битовая глубина : 16 бит
Метод сжатия : С потерями
Размер потока : 169 Мбайт (2%)
Заголовок : Commentary, AC3 2.0, 192 kbps
Язык : English
Default : Нет
Forced : Нет
Текст #1
Идентификатор : 5
Формат : UTF-8
Идентификатор кодека : S_TEXT/UTF8
Идентификатор кодека/Информация : UTF-8 Plain Text
Заголовок : Форсированные
Язык : Russian
Default : Да
Forced : Да
Текст #2
Идентификатор : 6
Формат : UTF-8
Идентификатор кодека : S_TEXT/UTF8
Идентификатор кодека/Информация : UTF-8 Plain Text
Заголовок : Полные
Язык : Russian
Default : Нет
Forced : Нет
Текст #3
Идентификатор : 7
Формат : UTF-8
Идентификатор кодека : S_TEXT/UTF8
Идентификатор кодека/Информация : UTF-8 Plain Text
Заголовок : Full
Язык : English
Default : Нет
Forced : Нет
Текст #4
Идентификатор : 8
Формат : UTF-8
Идентификатор кодека : S_TEXT/UTF8
Идентификатор кодека/Информация : UTF-8 Plain Text
Заголовок : Commentary
Язык : English
Default : Нет
Forced : Нет
Меню
00:00:00.000 : en:00:00:00.000
00:03:58.071 : en:00:03:58.071
00:10:11.902 : en:00:10:11.902
00:17:26.295 : en:00:17:26.295
00:20:38.111 : en:00:20:38.111
00:26:04.396 : en:00:26:04.396
00:32:44.003 : en:00:32:44.003
00:40:26.590 : en:00:40:26.590
00:45:17.965 : en:00:45:17.965
00:49:43.438 : en:00:49:43.438
00:54:50.870 : en:00:54:50.870
01:03:44.529 : en:01:03:44.529
01:09:29.373 : en:01:09:29.373
01:16:28.000 : en:01:16:28.000
01:21:35.724 : en:01:21:35.724
01:27:24.447 : en:01:27:24.447
01:34:52.812 : en:01:34:52.812
01:43:48.847 : en:01:43:48.847
01:49:32.315 : en:01:49:32.315
01:57:03.141 : en:01:57:03.141
Скачать

Скачать торрент!

Как скачивать? · Что такое торрент? · Рейтинг и ограничения

Сайт не распространяет и не хранит электронные версии произведений, а лишь предоставляет доступ к создаваемому пользователями каталогу ссылок на торрент-файлы, которые содержат только списки хеш-сумм

[Профиль] [ЛС]
Показать сообщения:    
Ответить на тему

Текущее время: Сегодня 00:22

Часовой пояс: GMT + 4



Вы не можете начинать темы
Вы не можете отвечать на сообщения
Вы не можете редактировать свои сообщения
Вы не можете удалять свои сообщения
Вы не можете голосовать в опросах
Вы не можете прикреплять файлы к сообщениям
Вы не можете скачивать файлы