Четверг, 12-e (Сергей Попов) [2012, мелодрама, DVDRip]

Ответить на тему
 
Автор Сообщение

user ®

Стаж: 7 лет 7 месяцев

Сообщений: 20008

Пост Пост: #1 от 04-Янв-2014 18:00

[Цитировать]

Четверг, 12-e
Жанр: мелодрама
Год выпуска: 2012
Продолжительность: 01:24:10
Режиссёр: Сергей Попов
В ролях: Ирина Гринева, Дмитрий Ульянов, Тарас Бибич, Евгения Дмитриева, Тимофей Трибунцев, Ксения Теплова, Анна Уколова, Вадим Колганов, Наталья Рогожкина, Дмитрий Мухамадеев, Сергей Петров, Юлия Рутберг
Описание: Ночной звонок резко меняет жизнь Юлии Битовой. Незнакомка сообщает, что беременна от мужа Юлии — Вадима. Муж утверждает, что это просто чей-то дурацкий розыгрыш, но Юля не верит ему. После очередного вранья Вадима и звонка девушки, Юля выгоняет супруга из дома. Однако, она продолжает любить его. Юля растеряна и просит помощи у своих подруг.
Коллективно принимается решение кардинально поменять имидж Юлии, а также попытаться вызвать у неверного супруга ревность. Для этого одна из подруг направляет к Юлии своего хорошего знакомого. Однако, по недоразумению, Юлия принимает за участника плана совершенно постороннего человека — Антона.
Антон приехал в город в командировку. Ему сразу понравилась Юлия. А Юля поражена тем, что Антон, как никто другой понимает ее. Однако, Юля не готова резко поменять свою жизнь. Тем более, что неверный муж просит дать ему еще один шанс, а звонки незнакомки действительно оказываются простым недоразумением. Но сможет ли теперь Юля жить, как прежде?
Сэмпл: http://sendfile.su/917863
Качество видео: DVDRip
Формат видео: AVI
Видео: 720x400 (1.80:1), 25 fps, XviD build 50, 1867 kbps avg, 0.26 bit/pixel
Аудио: 48 kHz, AC3 Dolby Digital, 3/2 (L,C,R,l,r) + LFE ch, 448 kbps

MediaInfo

E:\Четверг, 12-e\Chetverg.12e.2012.DVDRip.avi
General
Complete name : E:\Четверг, 12-e\Chetverg.12e.2012.DVDRip.avi
Format : AVI
Format/Info : Audio Video Interleave
File size : 1.37 GiB
Duration : 1h 24mn
Overall bit rate : 2 325 Kbps
Writing application : VirtualDubMod 1.5.10.3 | www.virtualdub-fr.org || (build 2550/release)
Writing library : VirtualDubMod build 2550/release
Video #0
ID : 0
Format : MPEG-4 Visual
Format profile : Advanced Simple@L5
Format settings, BVOP : 2
Format settings, QPel : No
Format settings, GMC : No warppoints
Format settings, Matrix : Default (MPEG)
Codec ID : XVID
Codec ID/Hint : XviD
Duration : 1h 24mn
Bit rate : 1 868 Kbps
Width : 720 pixels
Height : 400 pixels
Display aspect ratio : 16:9
Frame rate : 25.000 fps
Color space : YUV
Chroma subsampling : 4:2:0
Bit depth : 8 bits
Scan type : Progressive
Compression mode : Lossy
Bits/(Pixel*Frame) : 0.259
Stream size : 1.10 GiB (80%)
Writing library : XviD 1.2.1 (UTC 2008-12-04)
Audio #1
ID : 1
Format : AC-3
Format/Info : Audio Coding 3
Mode extension : CM (complete main)
Codec ID : 2000
Duration : 1h 24mn
Bit rate mode : Constant
Bit rate : 448 Kbps
Channel(s) : 6 channels
Channel positions : Front: L C R, Side: L R, LFE
Sampling rate : 48.0 KHz
Bit depth : 16 bits
Compression mode : Lossy
Stream size : 270 MiB (19%)
Alignment : Split accross interleaves
Interleave, duration : 40 ms (1.00 video frame)
Interleave, preload duration : 500 ms

Скриншот c названием фильма

Скриншоты

Скачать

Скачать торрент!

Как скачивать? · Что такое торрент? · Рейтинг и ограничения

Сайт не распространяет и не хранит электронные версии произведений, а лишь предоставляет доступ к создаваемому пользователями каталогу ссылок на торрент-файлы, которые содержат только списки хеш-сумм

[Профиль] [ЛС]
Показать сообщения:    
Ответить на тему

Текущее время: Сегодня 16:46

Часовой пояс: GMT + 4



Вы не можете начинать темы
Вы не можете отвечать на сообщения
Вы не можете редактировать свои сообщения
Вы не можете удалять свои сообщения
Вы не можете голосовать в опросах
Вы не можете прикреплять файлы к сообщениям
Вы не можете скачивать файлы