Станция «Фрутвейл» / Fruitvale Station (Райан Куглер / Ryan Coogler) [2013, США, драма, биография, HDRip] VO (datynet) + Original Eng

Ответить на тему
 
Автор Сообщение

user ®

Стаж: 7 лет 7 месяцев

Сообщений: 20008

Пост Пост: #1 от 04-Янв-2014 18:00

[Цитировать]

Станция «Фрутвейл» / Fruitvale Station
Страна: США
Жанр: драма, биография
Год выпуска: 2013
Продолжительность: 01:25:01
Перевод: Одноголосый закадровый datynet
Cубтитры: нет
Оригинальная аудиодорожка: английский
Режиссер: Райан Куглер / Ryan Coogler
В ролях: Майкл Б. Джордан, Мелони Диаз, Кевин Дюран, Октавия Спенсер, Чад Майкл Мюррэй, Ана О’Райли, Ариана Нил, Кинэн Куглер, Трестин Джордж, Джои Оглсби
Описание: Оскар Грант был обычным жизнерадостным парнем двадцати двух лет от роду. Он обожал свою дочь, был примерным сыном, изменял, но смог помириться с женой, ещё он любил потрепаться с друзьями во дворе своего родного района… Это совсем недалеко от станции Фрутвэйл, где в канун Нового 2009 года его застрелил полицейский по абсолютно непонятной причине...
Сэмпл: http://multi-up.com/936973

Каннский кинофестиваль, 2013 год
Победитель: Особый взгляд Каннского кинофестиваля - лучший актер (Райан Куглер) — «Un Certain Regard - Avenir Prize»
Номинации: Особый взгляд Каннского кинофестиваля
Санденс, 2013 год
Победитель (2):
Гран-при в категории «Драматический фильм»
Приз зрительских симпатий в категории «Драматический фильм»

Качество видео: HDRip
Формат видео: AVI
Видео: XviD, 720x400 (16:9), 23.976 fps, 1 849 Kbps (0.268 bit/pixel)
Аудио: Russian: MP3, 44.1 KHz, 2 ch, 192 Kbps, CBR
Аудио 2: English: AC-3, 48.0 KHz, 6 ch, 256 Kbps, CBR

MediaInfo

Общее
Полное имя : D:\Fruitvale.Station_2013.HDRip.avi
Формат : AVI
Формат/Информация : Audio Video Interleave
Размер файла : 1,38 Гбайт
Продолжительность : 1 ч. 25 м.
Общий поток : 2328 Кбит/сек
Программа кодирования : VirtualDubMod 1.5.10.2 (build 2540/release)
Библиотека кодирования : VirtualDubMod build 2540/release
Видео
Идентификатор : 0
Формат : MPEG-4 Visual
Профиль формата : Advanced Simple@L5
Параметр BVOP формата : 2
Параметр QPel формата : Нет
Параметр GMC формата : Без точки перехода
Параметр матрицы формата : Default (H.263)
Идентификатор кодека : XVID
Идентификатор кодека/Подсказка : XviD
Продолжительность : 1 ч. 25 м.
Битрейт : 1866 Кбит/сек
Ширина : 720 пикселей
Высота : 400 пикселей
Соотношение сторон : 16:9
Частота кадров : 23,976 кадра/сек
Цветовое пространство : YUV
Субдискретизация насыщенности : 4:2:0
Битовая глубина : 8 бит
Тип развёртки : Прогрессивная
Метод сжатия : С потерями
Бит/(Пиксели*Кадры) : 0.270
Размер потока : 1,11 Гбайт (80%)
Библиотека кодирования : XviD 1.2.1 (UTC 2008-12-04)
Аудио #1
Идентификатор : 1
Формат : MPEG Audio
Версия формата : Version 1
Профиль формата : Layer 3
Идентификатор кодека : 55
Идентификатор кодека/Подсказка : MP3
Продолжительность : 1 ч. 25 м.
Вид битрейта : Постоянный
Битрейт : 192 Кбит/сек
Каналы : 2 канала
Частота : 44,1 КГц
Метод сжатия : С потерями
Размер потока : 117 Мбайт (8%)
Выравнивание : Разделение по промежуткам
Продолжительность промежутка : 42 мс. (1,00 видеокадр)
Время предзагрузки промежутка : 500 мс.
Аудио #2
Идентификатор : 2
Формат : AC-3
Формат/Информация : Audio Coding 3
Расширение режима : CM (complete main)
Параметр Endianness формата : Big
Идентификатор кодека : 2000
Продолжительность : 1 ч. 25 м.
Вид битрейта : Постоянный
Битрейт : 256 Кбит/сек
Каналы : 6 каналов
Расположение каналов : Front: L C R, Side: L R, LFE
Частота : 48,0 КГц
Битовая глубина : 16 бит
Метод сжатия : С потерями
Размер потока : 156 Мбайт (11%)
Выравнивание : Разделение по промежуткам
Продолжительность промежутка : 42 мс. (1,00 видеокадр)
Время предзагрузки промежутка : 500 мс.

Скриншот c названием фильма

Скриншоты

Скачать

Скачать торрент!

Как скачивать? · Что такое торрент? · Рейтинг и ограничения

Сайт не распространяет и не хранит электронные версии произведений, а лишь предоставляет доступ к создаваемому пользователями каталогу ссылок на торрент-файлы, которые содержат только списки хеш-сумм

[Профиль] [ЛС]
Показать сообщения:    
Ответить на тему

Текущее время: Сегодня 08:55

Часовой пояс: GMT + 4



Вы не можете начинать темы
Вы не можете отвечать на сообщения
Вы не можете редактировать свои сообщения
Вы не можете удалять свои сообщения
Вы не можете голосовать в опросах
Вы не можете прикреплять файлы к сообщениям
Вы не можете скачивать файлы