Медвежонок Винни. С Новым Медом! / Winnie the Pooh: A Very Merry Pooh Year (Джейми Митчел / Jamie Mitchell) [2002, мультфильм, приключения, детский, DVB] DUB (Невафильм)

Ответить на тему
 
Автор Сообщение

user ®

Стаж: 12 лет

Сообщений: 15145

Пост Пост: #1 от 04-Янв-2014 06:00

[Цитировать]

Медвежонок Винни. С Новым Медом! / Winnie the Pooh: A Very Merry Pooh Year
Страна: США
Жанр: мультфильм, приключения, детский
Продолжительность: 01:02:00
Год выпуска: 2002
Перевод: Профессиональный (дублированный) - Невафильм, 2013
Режиссёр: Джейми Митчел / Jamie Mitchell
Роли озвучивали:
Винни - Владимир Баранов (Jim Cummings)
Рассказчик - Валерий Никитенко (Michael York)
Хрюня - Андрей Матвеев (John Fiedler )
Кролик - Георгий Корольчук (Ken Sansom)
Тигруля - Виктор Костецкий (Jim Cummings)
Суслик - Михаил Хрусталев (Michael Gough)
Ру - Никита Морозов (Nikita Hopkins)
Кенга - Мария Соснякова (Kath Soucie)
Ушастик - Дмитрий Лагачев (Peter Cullen)
Кристофер Робин - Захар Рядных (William Green)
Описание: В сочельник Хрюня, Тигруля, Кролик, Ушастик, Кенга и Ру пришли в гости к своему другу Медвежонку Винни, чтобы помочь ему нарядить елку! Когда все праздничные приготовления были завершены, друзья устроились около камина в ожидании Санты. Они решили рассказать малышу Ру о невероятной истории, которая произошла ровно год назад...
Дополнительно:
Медвежонок Винни. С новым мёдом! (завтра)
Медвежонок Винни. С новым мёдом! (сегодня)
Медвежонок Винни. С новым мёдом! (премьера)
Качество: DVB
Формат: ts
Видео: AVC, 720х576, 25.000 fps, 2 228 Kbps
Аудио: MPEG Audio, 48.0 KHz, 2 channels, 192 Kbps
Субтитры: нет

Подробные технические данные

GeneralID : 1 (0x1)Complete name : I:\записти с телека\С новым 2014 мёдом!\Медвежонок Винни. С новым мёдом.tsFormat : MPEG-TSFile size : 1.12 GiBDuration : 1h 2mnOverall bit rate : 2 548 Kbps
VideoID : 62 (0x3E)Menu ID : 1 (0x1)Format : AVCFormat/Info : Advanced Video CodecFormat profile : High@L3.0Format settings, CABAC : YesFormat settings, ReFrames : 3 framesCodec ID : 27Duration : 1h 2mnBit rate : 2 228 KbpsWidth : 720 pixelsHeight : 576 pixelsDisplay aspect ratio : 4:3Frame rate : 25.000 fpsStandard : ComponentColor space : YUVChroma subsampling : 4:2:0Bit depth : 8 bitsScan type : InterlacedScan order : Top Field FirstBits/(Pixel*Frame) : 0.215Stream size : 1 003 MiB (87%)Color primaries : BT.470-6 System B, BT.470-6 System G, BT.601-6 625, BT.1358 625, BT.1700 625 PAL, BT.1700 625 SECAMTransfer characteristics : BT.470-6 System B, BT.470-6 System GMatrix coefficients : BT.470-6 System B, BT.470-6 System G, BT.601-6 625, BT.1358 625, BT.1700 625 PAL, BT.1700 625 SECAM, IEC 61966-2-4 601
AudioID : 61 (0x3D)Menu ID : 1 (0x1)Format : MPEG AudioFormat version : Version 1Format profile : Layer 2Codec ID : 3Duration : 1h 2mnBit rate mode : ConstantBit rate : 192 KbpsChannel(s) : 2 channelsSampling rate : 48.0 KHzCompression mode : LossyStream size : 86.5 MiB (8%)Language : English

Скриншоты

Скачать

Скачать торрент! Медвежонок Винни. С Новым Медом! / Winnie the Pooh: A Very Merry Pooh Year (Джейми Митчел / Jamie Mitchell) [2002, мультфильм, приключения, детский, DVB] DUB (Невафильм)

Как скачивать? · Что такое торрент? · Рейтинг и ограничения

Сайт не распространяет и не хранит электронные версии произведений, а лишь предоставляет доступ к создаваемому пользователями каталогу ссылок на торрент-файлы, которые содержат только списки хеш-сумм

[Профиль] [ЛС]
Показать сообщения:    
Ответить на тему

Текущее время: Сегодня 21:04

Часовой пояс: GMT + 4



Вы не можете начинать темы
Вы не можете отвечать на сообщения
Вы не можете редактировать свои сообщения
Вы не можете удалять свои сообщения
Вы не можете голосовать в опросах
Вы не можете прикреплять файлы к сообщениям
Вы не можете скачивать файлы