Другая жизнь Ришара Кемпа / L\'autre vie de Richard Kemp (Жерминаль Альварез / Germinal Alvarez) [2013, Франция, Фантастика, триллер, криминал, HDRip] VO + Sub Rus + Original Fre

Ответить на тему
 
Автор Сообщение

user ®

Стаж: 7 лет 7 месяцев

Сообщений: 20008

Пост Пост: #1 от 04-Янв-2014 06:00

[Цитировать]

Другая жизнь Ришара Кемпа / L'autre vie de Richard Kemp
Страна: Франция
Жанр: Фантастика, триллер, криминал
Год выпуска: 2013
Продолжительность: 01:40:44
Перевод: Одноголосый закадровый (Хихикающий доктор)
Cубтитры: русские (Алексей Королев)
Оригинальная аудиодорожка: французский (Отдельно)
Режиссер: Жерминаль Альварез / Germinal Alvarez
В ролях: Жан-Юг Англад, Мелани Тьерри, Филиппе Беродот, Жан-Анри Компере, Пьер Мур, Фридерик Сорель, Адриен Кошетье, Эльза Жаллес
Описание: Расследуя очередное дело, капитан полиции Ришар Кемп обнаруживает, что новое убийство как две капли воды похоже на работу серийного маньяка, который орудовал в этих краях тридцать с лишним лет назад. Мистическим образом Ришар Кемп переносится в май 1989 года, ровно за день до того, как маньяк совершит первое убийство. Кемп решает изменить прошлое и поймать убийцу еще до того, как тот совершит преступление, но ему активно мешает молодой и амбициозный детектив — ни кто иной, как он сам.
Сэмпл
Качество видео: HDRip / BDRip (720p)
Формат видео: AVI
Видео: Video: 720x304 (2.37:1), 23.976 fps, XviD build 73 ~1610 kbps avg, 0.31 bit/pixel
Аудио: Audio: 48 kHz, AC3 Dolby Digital, 3/2 (L,C,R,l,r) + LFE ch, ~448.00 kbps avg (RUS)
Аудио 2: Audio: 48 kHz, AC3 Dolby Digital, 3/2 (L,C,R,l,r) + LFE ch, ~448.00 kbps avg (FRE)
Формат субтитров: softsub (SRT)

MediaInfo

Общее
Полное имя : L.Autre.Vie.De.Richard.Kemp.2013.HDRip.avi
Формат : AVI
Формат/Информация : Audio Video Interleave
Размер файла : 1,46 Гбайт
Продолжительность : 1 ч. 40 м.
Общий поток : 2068 Кбит/сек
Программа кодирования : VirtualDubMod 1.5.10.3 | www.virtualdub-fr.org || (build 2550/release)
Библиотека кодирования : VirtualDubMod build 2550/release
Видео
Идентификатор : 0
Формат : MPEG-4 Visual
Профиль формата : Advanced Simple@L5
Параметр BVOP формата : 1
Параметр QPel формата : Нет
Параметр GMC формата : Без точки перехода
Параметр матрицы формата : Выборочная
Идентификатор кодека : XVID
Идентификатор кодека/Подсказка : XviD
Продолжительность : 1 ч. 40 м.
Битрейт : 1611 Кбит/сек
Ширина : 720 пикселей
Высота : 304 пикселя
Соотношение сторон : 2,35:1
Частота кадров : 23,976 кадра/сек
Цветовое пространство : YUV
Субдискретизация насыщенности : 4:2:0
Битовая глубина : 8 бит
Тип развёртки : Прогрессивная
Метод сжатия : С потерями
Бит/(Пиксели*Кадры) : 0.307
Размер потока : 1,13 Гбайт (78%)
Библиотека кодирования : XviD 73
Аудио
Идентификатор : 1
Формат : AC-3
Формат/Информация : Audio Coding 3
Расширение режима : CM (complete main)
Параметр Endianness формата : Big
Идентификатор кодека : 2000
Продолжительность : 1 ч. 40 м.
Вид битрейта : Постоянный
Битрейт : 448 Кбит/сек
Каналы : 6 каналов
Расположение каналов : Front: L C R, Side: L R, LFE
Частота : 48,0 КГц
Битовая глубина : 16 бит
Метод сжатия : С потерями
Размер потока : 323 Мбайт (22%)
Выравнивание : Разделение по промежуткам
Продолжительность промежутка : 42 мс. (1,00 видеокадр)
Время предзагрузки промежутка : 500 мс.

Скриншоты

Скачать

Скачать торрент!

Как скачивать? · Что такое торрент? · Рейтинг и ограничения

Сайт не распространяет и не хранит электронные версии произведений, а лишь предоставляет доступ к создаваемому пользователями каталогу ссылок на торрент-файлы, которые содержат только списки хеш-сумм

[Профиль] [ЛС]
Показать сообщения:    
Ответить на тему

Текущее время: Сегодня 00:04

Часовой пояс: GMT + 4



Вы не можете начинать темы
Вы не можете отвечать на сообщения
Вы не можете редактировать свои сообщения
Вы не можете удалять свои сообщения
Вы не можете голосовать в опросах
Вы не можете прикреплять файлы к сообщениям
Вы не можете скачивать файлы