Снежная Королева / The Snow Queen (Мартин Гэйтс / Martin Gates) [1995 г., мультфильм, DVB]

Ответить на тему
 
Автор Сообщение

user ®

Стаж: 13 лет

Сообщений: 15041

Пост Пост: #1 от 03-Янв-2014 17:20

[Цитировать]

Снежная Королева / The Snow Queen
-
Год выпуска: 1995
Страна: Великобритания, Martin Gates Productions
Жанр: мультфильм
Перевод: Профессиональный (дублированный) по заказу ЗАО «Первый канал. Всемирная сеть»
Продолжительность: 01:09:19
Русские субтитры: нет
Режиссёр: Мартин Гэйтс / Martin Gates-Описание: Однажды, в обычном доме, в обычном городе, вместе с бабушкой жили Том и Элли. И все у них было хорошо до тех пор, пока Снежная королева не решила превратить весь мир в свое ледовое царство.
Она создала волшебное зеркало, которое отражало бы лучи Солнца, и велела верным троллям отнести его на высокую гору. Но неуклюжие слуги разбили зеркало на мелкие кусочки, разлетевшиеся по всему свету.
И два самых маленьких осколка попали Тому в глаза — и он стал видеть белое черным, и в сердце — оно стало злым и холодным ...-Доп. информация:
-Трансляция спутникового канала:

Семпл: http://yadi.sk/d/sRzMPMGnFN8Sb-Качество: DVB
Формат: MPEG
Видео кодек: MPEG2
Аудио кодек: MPEG Audio (Version 1) (Layer 2)
Видео: MPEG 2, 720 x 576, 25 fps, 3500 kbps
Аудио: MPEG Audio (Version 1) (Layer 2), 2 Ch, 48 KHz, 192 kbps-

MediaInfo

G:\Снежная Королева. (1995)_DVB by SLuMeP.mpg
General
Complete name : G:\Снежная Королева. (1995)_DVB by SLuMeP.mpg
Format : MPEG-PS
File size : 1.82 GiB
Duration : 1h 9mn
Overall bit rate mode : Variable
Overall bit rate : 3 750 Kbps
Writing library : (c) 1998-2010 Womble Multimedia, Inc. / MPEG Video Wizard DVD 5.0.0.114 (01/2010) / Apr 20 2010
Video #224
ID : 224 (0xE0)
Format : MPEG Video
Format version : Version 2
Format profile : Main@Main
Format settings, BVOP : Yes
Format settings, Matrix : Custom
Format settings, GOP : M=3, N=12
Duration : 1h 9mn
Bit rate mode : Variable
Bit rate : 3 483 Kbps
Maximum bit rate : 5 000 Kbps
Width : 720 pixels
Height : 576 pixels
Display aspect ratio : 4:3
Frame rate : 25.000 fps
Standard : PAL
Color space : YUV
Chroma subsampling : 4:2:0
Bit depth : 8 bits
Scan type : Interlaced
Scan order : Top Field First
Compression mode : Lossy
Bits/(Pixel*Frame) : 0.336
Stream size : 1.69 GiB (93%)
Writing library : (c) 1998-2010 Womble Multimedia, Inc. / MPEG Video Wizard DVD 5.0.0.114 (01/2010) / Apr 20 2010
Audio #192
ID : 192 (0xC0)
Format : MPEG Audio
Format version : Version 1
Format profile : Layer 2
Duration : 1h 9mn
Bit rate mode : Constant
Bit rate : 192 Kbps
Channel(s) : 2 channels
Sampling rate : 48.0 KHz
Compression mode : Lossy
Stream size : 95.2 MiB (5%)
Menu

Скриншоты

Скачать

Скачать торрент! Снежная Королева / The Snow Queen (Мартин Гэйтс / Martin Gates) [1995 г., мультфильм, DVB]

Как скачивать? · Что такое торрент? · Рейтинг и ограничения

Сайт не распространяет и не хранит электронные версии произведений, а лишь предоставляет доступ к создаваемому пользователями каталогу ссылок на торрент-файлы, которые содержат только списки хеш-сумм

[Профиль] [ЛС]
Показать сообщения:    
Ответить на тему

Текущее время: Сегодня 20:03

Часовой пояс: GMT + 4



Вы не можете начинать темы
Вы не можете отвечать на сообщения
Вы не можете редактировать свои сообщения
Вы не можете удалять свои сообщения
Вы не можете голосовать в опросах
Вы не можете прикреплять файлы к сообщениям
Вы не можете скачивать файлы