Адский бейсбол / Battlefield Baseball / Jigoku Koshien (Юдай Ямагучи / Yudai Yamaguchi) [2003, япония, черная комедия, DVDRip] VO (aleksei80)

Ответить на тему
 
Автор Сообщение

user ®

Стаж: 11 лет

Сообщений: 15151

Пост Пост: #1 от 03-Янв-2014 17:20

[Цитировать]

Адский бейсбол / Battlefield Baseball / Jigoku Koshien
Страна: япония
Жанр: черная комедия
Год выпуска: 2003
Продолжительность: 01:35:10
Перевод: Одноголосый закадровый aleksei80
Cубтитры: нет
Режиссер: Юдай Ямагучи / Yudai Yamaguchi
В ролях: Tak Sakaguchi
Atsushi Ito
Hideo Sakaki
Описание: В ближайшем будущем бейсбол превратился в игру без правил и законов - боевой бейсбол, где проигравшего ждет смерть. Директор средней школы Сейдо (и по совместительству - тренер школьной бейсбольной команды) готовится к чемпионату, осталось лишь узнать, кто противник. И тут выясняется, что противник не кто иной, как средняя школа Гедо, сборище зомби и отморозков, вооруженных цепями и пилами. Спасти команду Сейдо может лишь новый ученик Дзюбей, который обладает большим мастерством в боевом бейсболе. Но прошлое Дзюбея скрывает страшную тайну, поэтому он поклялся никогда больше не играть... Так кто же станет победителем в этой поистине адской битве?
Сэмпл: http://multi-up.com/936713
Качество видео: DVDRip
Формат видео: AVI
Видео: XVID, 576x320, 16:9, 23.976 fps, 894 Kbps
Аудио: MP3, 44.1 KHz, 192 Kbps, 2 channels

MediaInfo

General
Complete name : C:\Users\котэ\Downloads\раздача на рутрекере\Battlefield.Baseball__2003_.avi
Format : AVI
Format/Info : Audio Video Interleave
File size : 746 MiB
Duration : 1h 35mn
Overall bit rate : 1 095 Kbps
Writing application : VirtualDubMod 1.5.10.1 (build 2366/release)
Writing library : VirtualDub build 32842/release
Video
ID : 0
Format : MPEG-4 Visual
Format profile : Advanced Simple@L5
Format settings, BVOP : No
Format settings, QPel : No
Format settings, GMC : No warppoints
Format settings, Matrix : Default (H.263)
Codec ID : XVID
Codec ID/Hint : XviD
Duration : 1h 35mn
Bit rate : 894 Kbps
Width : 576 pixels
Height : 320 pixels
Display aspect ratio : 16:9
Frame rate : 23.976 fps
Color space : YUV
Chroma subsampling : 4:2:0
Bit depth : 8 bits
Scan type : Progressive
Compression mode : Lossy
Bits/(Pixel*Frame) : 0.202
Stream size : 608 MiB (82%)
Writing library : XviD 1.0.0 RC3 (Nihao) (UTC 2004-03-22)
Audio
ID : 1
Format : MPEG Audio
Format version : Version 1
Format profile : Layer 3
Mode : Joint stereo
Mode extension : MS Stereo
Codec ID : 55
Codec ID/Hint : MP3
Duration : 1h 35mn
Bit rate mode : Constant
Bit rate : 192 Kbps
Channel(s) : 2 channels
Sampling rate : 44.1 KHz
Compression mode : Lossy
Stream size : 131 MiB (18%)
Alignment : Split accross interleaves
Interleave, duration : 42 ms (1.00 video frame)
Interleave, preload duration : 500 ms
Writing library : LAME3.97

Скриншот c названием фильма

Скачать

Скачать торрент! Адский бейсбол / Battlefield Baseball / Jigoku Koshien (Юдай Ямагучи / Yudai Yamaguchi) [2003, япония, черная комедия, DVDRip] VO (aleksei80)

Как скачивать? · Что такое торрент? · Рейтинг и ограничения

Сайт не распространяет и не хранит электронные версии произведений, а лишь предоставляет доступ к создаваемому пользователями каталогу ссылок на торрент-файлы, которые содержат только списки хеш-сумм

[Профиль] [ЛС]
Показать сообщения:    
Ответить на тему

Текущее время: Сегодня 03:31

Часовой пояс: GMT + 4



Вы не можете начинать темы
Вы не можете отвечать на сообщения
Вы не можете редактировать свои сообщения
Вы не можете удалять свои сообщения
Вы не можете голосовать в опросах
Вы не можете прикреплять файлы к сообщениям
Вы не можете скачивать файлы