Невеста любой ценой (Дмитрий Грачев) [2009 г., комедия, DVDRip]

Ответить на тему
 
Автор Сообщение

user ®

Стаж: 7 лет 7 месяцев

Сообщений: 20008

Пост Пост: #1 от 03-Янв-2014 17:20

[Цитировать]

Невеста любой ценой- -Год выпуска: 2009
Страна: Россия
Жанр: комедия
Продолжительность: 01:37:10
Русские субтитры: нет
Режиссер: Дмитрий Грачев
-В ролях: Павел Воля, Любовь Толкалина, Ольга Шелест, Максим Костромыкин, Наталья Рычкова, Мария Шалаева, Оксана Кутузова, Александр Самойленко, Виталий Хаев, Сергей Ларин-Описание: Главный герой — удачливый бизнесмен и гениальный сердцеед, хорошо изучивший женскую психологию. Чтобы заслужить повышение по службе, он вступает в контакт с опасным бизнесменом с криминальным прошлым. Но во время переговоров, не сдержав темперамента, легко соблазняет его подругу, а выходя от нее утром, попадается на глаза шоферу бизнесмена. Теперь ему грозит серьезная опасность, если, конечно, он не сумеет обеспечить себе алиби в виде невесты. Любой ценой.-СЭМПЛ
Качество: DVDRip / Исходник DVD 9
Формат: AVI
Видео кодек: XviD
Видео: 624x336 (1.86:1), 25 fps, XviD build 50 ~933 kbps avg, 0.18 bit/pixel
Аудио: 48 kHz, MPEG Layer 3, 2 ch, ~128.00 kbps avg
-

МИ

General
Complete name : E:\TORRENTS ALL READY\Nevesta_Luboy_Tsenoy_2009_DVDRip_Menen.avi
Format : AVI
Format/Info : Audio Video Interleave
File size : 745 MiB
Duration : 1h 37mn
Overall bit rate : 1 071 Kbps
Director : Menen
Writing application : VirtualDubMod 1.5.10.2 (build 2540/release)
Video
ID : 0
Format : MPEG-4 Visual
Format profile : Advanced Simple@L5
Format settings, BVOP : 1
Format settings, QPel : No
Format settings, GMC : No warppoints
Format settings, Matrix : Custom
Codec ID : XVID
Codec ID/Hint : XviD
Duration : 1h 37mn
Bit rate : 934 Kbps
Width : 624 pixels
Height : 336 pixels
Display aspect ratio : 1.85:1
Frame rate : 25.000 fps
Color space : YUV
Chroma subsampling : 4:2:0
Bit depth : 8 bits
Scan type : Progressive
Compression mode : Lossy
Bits/(Pixel*Frame) : 0.178
Stream size : 649 MiB (87%)
Writing library : XviD 1.2.1 (UTC 2008-12-04)
Audio
ID : 1
Format : MPEG Audio
Format version : Version 1
Format profile : Layer 3
Mode : Joint stereo
Mode extension : MS Stereo
Codec ID : 55
Codec ID/Hint : MP3
Duration : 1h 37mn
Bit rate mode : Constant
Bit rate : 128 Kbps
Channel(s) : 2 channels
Sampling rate : 48.0 KHz
Compression mode : Lossy
Stream size : 89.0 MiB (12%)
Alignment : Aligned on interleaves
Interleave, duration : 40 ms (1.00 video frame)
Interleave, preload duration : 504 ms

-

Скриншоты

-
Скачать

Скачать торрент!

Как скачивать? · Что такое торрент? · Рейтинг и ограничения

Сайт не распространяет и не хранит электронные версии произведений, а лишь предоставляет доступ к создаваемому пользователями каталогу ссылок на торрент-файлы, которые содержат только списки хеш-сумм

[Профиль] [ЛС]
Показать сообщения:    
Ответить на тему

Текущее время: Сегодня 10:07

Часовой пояс: GMT + 4



Вы не можете начинать темы
Вы не можете отвечать на сообщения
Вы не можете редактировать свои сообщения
Вы не можете удалять свои сообщения
Вы не можете голосовать в опросах
Вы не можете прикреплять файлы к сообщениям
Вы не можете скачивать файлы