Одним меньше / Dead Man Down (Нильс Арден Оплев / Niels Arden Oplev) [2013, США, триллер, драма, криминал, боевик, BDRip] AVO (Гаврилов)

Ответить на тему
 
Автор Сообщение

user ®

Стаж: 7 лет 7 месяцев

Сообщений: 20008

Пост Пост: #1 от 03-Янв-2014 17:20

[Цитировать]

Одним меньше / Dead Man Down
«Время собирать камни»
- Страна: США / Automatik Entertainment, Frequency Films, IM Global, Original Film
Жанр: триллер, драма, криминал, боевик
Год выпуска: 2013
Продолжительность: 01:57:49
Перевод: Авторский (одноголосый закадровый)
Cубтитры: нет
Режиссёр: Нильс Арден Оплев / Niels Arden Oplev
В ролях: Колин Фаррелл, Нуми Рапас, Терренс Ховард, Доминик Купер, Изабель Юппер, Луис Да Силва мл., Стью Беннетт, Фрэнки Джи, Деклан Мулвей, Джон Ченатьемпо.
Описание: История человека по имени Виктор, он правая рука лидера преступной группировки из Нью-Йорка. Виктор неспроста оказался в криминальном синдикате: мафия уничтожила его семью, поэтому он хочет отомстить. Об этом узнает загадочная Беатрис, соблазняет его и шантажирует. Однако у героев только одна цель в жизни — месть. И она приведет их к кровавой развязке.-Рейтинг
imdb.com: 6.50 (35 778)
kinopoisk.ru: 6.740 (9 983)
MPAA: - лицам до 17 лет обязательно присутствие взрослого-Сэмпл: http://multi-up.com/933162-Качество видео: BDRip
Формат видео: AVI
Видео: XviD build 65, 720x304 (2.37:1), 23.976 fps, ~1383 kbps avg, 0.264 bit/pixel
Аудио: 48 kHz, AC3 Dolby Digital, 3/2 (L,C,R,l,r) + LFE ch, ~384 kbps avg (AVO)
-

Благодарность

За перевод А. Гаврилова благодарим пользователей hdtracker:
eyrobot, KpucTo161, Pain_70, kinobbk, karantin66, SavineX, Schmulke, nimph, Xerman13, rydanes, Brown15, feldeger, dunhill200, lexal, Chistobaev, foxlight, olegsoleg, Hattori Hanzo, Loki, milocerd0v, mamachucha66, Role, Vimann, zork, Letyoha3, ZeRoNe, timur, shtift, sawyer4, Guyver, fly32, -Джосс-, chef&chef, pupok-, LAVR, Диммон, therox, vadamk, John Ryder, maximus1099, _MyxAmoP_, Rolly Tyler, GaryH, ultrajeka, denis_mgn_1987, BIMMER.

MediaInfo

General
Complete name : D:\Dead.Man.Down.2013.AVO.Gavrilov.BDRip.1,46Gb.XviD.AC3.avi
Format : AVI
Format/Info : Audio Video Interleave
File size : 1.46 GiB
Duration : 1h 57mn
Overall bit rate : 1 777 Kbps
Writing application : VirtualDubModRus 1.5.10.2 (build 2542/release)
Writing library : VirtualDubMod build 2542/release
Video
ID : 0
Format : MPEG-4 Visual
Format profile : Advanced Simple@L5
Format settings, BVOP : 1
Format settings, QPel : No
Format settings, GMC : No warppoints
Format settings, Matrix : Custom
Codec ID : XVID
Codec ID/Hint : XviD
Duration : 1h 57mn
Bit rate : 1 383 Kbps
Width : 720 pixels
Height : 304 pixels
Display aspect ratio : 2.35:1
Frame rate : 23.976 fps
Color space : YUV
Chroma subsampling : 4:2:0
Bit depth : 8 bits
Scan type : Progressive
Compression mode : Lossy
Bits/(Pixel*Frame) : 0.264
Stream size : 1.14 GiB (78%)
Writing library : XviD 65
Audio
ID : 1
Format : AC-3
Format/Info : Audio Coding 3
Mode extension : CM (complete main)
Format settings, Endianness : Big
Codec ID : 2000
Duration : 1h 57mn
Bit rate mode : Constant
Bit rate : 384 Kbps
Channel(s) : 6 channels
Channel positions : Front: L C R, Side: L R, LFE
Sampling rate : 48.0 KHz
Bit depth : 16 bits
Compression mode : Lossy
Stream size : 324 MiB (22%)
Alignment : Split accross interleaves
Interleave, duration : 42 ms (1.00 video frame)
Interleave, preload duration : 500 ms
Title : AVO

Скриншоты

Скачать

Скачать торрент!

Как скачивать? · Что такое торрент? · Рейтинг и ограничения

Сайт не распространяет и не хранит электронные версии произведений, а лишь предоставляет доступ к создаваемому пользователями каталогу ссылок на торрент-файлы, которые содержат только списки хеш-сумм

[Профиль] [ЛС]
Показать сообщения:    
Ответить на тему

Текущее время: Сегодня 13:53

Часовой пояс: GMT + 4



Вы не можете начинать темы
Вы не можете отвечать на сообщения
Вы не можете редактировать свои сообщения
Вы не можете удалять свои сообщения
Вы не можете голосовать в опросах
Вы не можете прикреплять файлы к сообщениям
Вы не можете скачивать файлы