Легенда о чудовищном Боге Хаоса / Conton (Такуро Фукуда / Takuro Fukuda) [1987, Япония, ужасы, VHSRip] + Sub Rus

Ответить на тему
 
Автор Сообщение

user ®

Стаж: 11 лет

Сообщений: 15151

Пост Пост: #1 от 03-Янв-2014 14:10

[Цитировать]

Легенда о чудовищном Боге Хаоса / Conton
Страна: Япония
Жанр: ужасы
Год выпуска: 1987
Продолжительность: 00:45:45
Перевод: Субтитры
Cубтитры: русские
Оригинальная аудиодорожка: японский
Режиссер: Такуро Фукуда / Takuro Fukuda
В ролях: Казухисо Кавахара
Описание: Демоны из кошмарных снов начинают преследовать молодого человека наяву
Качество видео: VHSRip
Формат видео: AVI
Видео: Xvid 644x430 25fps 1 500 Kbps
Аудио: MPEG Audio Layer 3 48000Hz stereo 128kbps
Формат субтитров: hardsub (неотключаемые)

MediaInfo

Format : AVI
Format/Info : Audio Video Interleave
File size : 537 MiB
Duration : 45mn 44s
Overall bit rate : 1 641 Kbps
Writing application : XviD4PSP 6.0 / 53.6.0
Video
ID : 0
Format : MPEG-4 Visual
Format profile : Advanced Simple@L5
Format settings, BVOP : 1
Format settings, QPel : No
Format settings, GMC : No warppoints
Format settings, Matrix : Default (H.263)
Codec ID : XVID
Codec ID/Hint : XviD
Duration : 45mn 44s
Bit rate : 1 500 Kbps
Width : 644 pixels
Height : 430 pixels
Display aspect ratio : 3:2
Frame rate : 25.000 fps
Color space : YUV
Chroma subsampling : 4:2:0
Bit depth : 8 bits
Scan type : Progressive
Compression mode : Lossy
Bits/(Pixel*Frame) : 0.217
Stream size : 491 MiB (91%)
Writing library : XviD 64
Audio
ID : 1
Format : MPEG Audio
Format version : Version 1
Format profile : Layer 3
Mode : Joint stereo
Mode extension : MS Stereo
Codec ID : 55
Codec ID/Hint : MP3
Duration : 45mn 44s
Bit rate mode : Constant
Bit rate : 128 Kbps
Channel(s) : 2 channels
Sampling rate : 48.0 KHz
Compression mode : Lossy
Stream size : 41.9 MiB (8%)
Alignment : Aligned on interleaves
Interleave, duration : 24 ms (0.60 video frame)
Writing library : LAME3.98.2ЄЄЄЄ

Скриншот c названием фильма

Скриншоты


Скачать

Скачать торрент! Легенда о чудовищном Боге Хаоса / Conton (Такуро Фукуда / Takuro Fukuda) [1987, Япония, ужасы, VHSRip] + Sub Rus

Как скачивать? · Что такое торрент? · Рейтинг и ограничения

Сайт не распространяет и не хранит электронные версии произведений, а лишь предоставляет доступ к создаваемому пользователями каталогу ссылок на торрент-файлы, которые содержат только списки хеш-сумм

[Профиль] [ЛС]
Показать сообщения:    
Ответить на тему

Текущее время: Сегодня 23:46

Часовой пояс: GMT + 4



Вы не можете начинать темы
Вы не можете отвечать на сообщения
Вы не можете редактировать свои сообщения
Вы не можете удалять свои сообщения
Вы не можете голосовать в опросах
Вы не можете прикреплять файлы к сообщениям
Вы не можете скачивать файлы