Учительница / A Teacher (Ханна Фидель / Hannah Fidell) [2013, США, Драма, WEB-DLRip] DVO (студия Elrom)

Ответить на тему
 
Автор Сообщение

user ®

Стаж: 7 лет 7 месяцев

Сообщений: 20008

Пост Пост: #1 от 03-Янв-2014 14:10

[Цитировать]

Учительница / A Teacher
Страна: США
Жанр: Драма
Год выпуска: 2013
Продолжительность: 01:15:38
Перевод: Профессиональный (двухголосый закадровый) студия Elrom
Cубтитры: нет
Режиссер: Ханна Фидель / Hannah Fidell
В ролях: Линдсэй Бердж /Lindsay Burdge/, Уилл Бриттейн /Will Brittain/, Дженифер Предайджер /Jennifer Prediger/, Джули Дель Филлипс /Julie Dell Phillips/, Джонни Марс /Jonny Mars/, Крис Дюбек /Chris Doubek/
Описание: Фильм заново раскрывает тему древней как мир, но неизменно тревожащей умы любви между школьной учительницей и ее не по годам развитым юношей-учеником.
Доп. информация:
imdb
Производство: O-SCOPE productions (США)
Sample
Качество видео: WEB-DLRip
Формат видео: AVI
Видео: Xvid 672x272 23.976fps 1237kbps
Аудио: MPEG Audio Layer 3 48000Hz stereo 128kbps [rus]

MediaInfo

General
Complete name : P:\A Teacher (2013) 1080p WEB-DL\Uchitelnica.2013.WEB-DLrip.XviD.Rus_25KADR.avi
Format : AVI
Format/Info : Audio Video Interleave
File size : 744 MiB
Duration : 1h 15mn
Overall bit rate : 1 375 Kbps
Movie name : Uchitelnica.2013
Original source form/Distributed : A.Teacher.(2013).1080p.WEB-DL.mkv
Genre : Drama
Copyright : 25KADR
Comment : DVO (Elrom studio)
Video
ID : 0
Format : MPEG-4 Visual
Format profile : Advanced Simple@L5
Format settings, BVOP : Yes
Format settings, QPel : No
Format settings, GMC : No warppoints
Format settings, Matrix : Default (MPEG)
Codec ID : XVID
Codec ID/Hint : XviD
Duration : 1h 15mn
Bit rate : 1 238 Kbps
Width : 672 pixels
Height : 272 pixels
Display aspect ratio : 2.471
Frame rate : 23.976 fps
Color space : YUV
Chroma subsampling : 4:2:0
Bit depth : 8 bits
Scan type : Progressive
Bits/(Pixel*Frame) : 0.282
Stream size : 670 MiB (90%)
Writing library : XviD 64
Audio
ID : 1
Format : MPEG Audio
Format version : Version 1
Format profile : Layer 3
Mode : Joint stereo
Codec ID : 55
Codec ID/Hint : MP3
Duration : 1h 15mn
Bit rate mode : Constant
Bit rate : 128 Kbps
Channel(s) : 2 channels
Sampling rate : 48.0 KHz
Stream size : 69.3 MiB (9%)
Alignment : Aligned on interleaves
Interleave, duration : 42 ms (1.00 video frame)
Interleave, preload duration : 504 ms
Language : Russian

Скриншоты


Скачать

Скачать торрент!

Как скачивать? · Что такое торрент? · Рейтинг и ограничения

Сайт не распространяет и не хранит электронные версии произведений, а лишь предоставляет доступ к создаваемому пользователями каталогу ссылок на торрент-файлы, которые содержат только списки хеш-сумм

[Профиль] [ЛС]
Показать сообщения:    
Ответить на тему

Текущее время: Сегодня 22:15

Часовой пояс: GMT + 4



Вы не можете начинать темы
Вы не можете отвечать на сообщения
Вы не можете редактировать свои сообщения
Вы не можете удалять свои сообщения
Вы не можете голосовать в опросах
Вы не можете прикреплять файлы к сообщениям
Вы не можете скачивать файлы