Армия проклятых / Army of the Damned (Том ДеНуччи / Tom DeNucci) [2014, США, ужасы, HDRip] VO (den904)

Ответить на тему
 
Автор Сообщение

user ®

Стаж: 7 лет 7 месяцев

Сообщений: 20008

Пост Пост: #1 от 03-Янв-2014 14:10

[Цитировать]

Армия проклятых / Army of the Damned Страна : США
Жанр : ужасы
Год выпуска : 2014
Продолжительность : 1час 29мин
Перевод : Одноголосый закадровый [den904]
Субтитры : нет
Режиссер : Том ДеНуччи
В ролях : Тони Тодд, Майкл Берриман,Джеки Мур, Жасмин Сэнт-Клэр, Дэвид Чокачи, Джои Фатон, Мадлен Мерритт, Мария Канеллис, Салли Эрна, Ник Принсип
Описание : Фильм повествует о том, как съемочная группа хитового реалити-шоу следует за группой полицейских по ночному городу. Полицейские попадают в очень неприятную историю, когда они принимают вызов, придающий совершенно новое значение термину «внутренние беспорядки». Оказываясь в опасных для жизни ситуациях, они вынуждены пойти наперекор всем правилам, чтобы остаться в живых. С помощью отшельника и мелкого преступника служители закона делают все, что в их силах, чтобы служить своему народу, защитить людей и не стать солдатами «армии проклятых».

Релиз группы :
Качество : HDRip Сэмпл
Формат : AVI
Видео : MPEG4, XviD, 640x368 (16:9), 23.976 fps, 957 Kbps (0.170 bit/pixel)
Аудио : AC-3, 48.0 KHz, 2 ch, 192 Kbps, CBR

MediaInfo

Общее
Полное имя : D:\Раздачи\bs5-aotd.avi
Формат : AVI
Формат/Информация : Audio Video Interleave
Размер файла : 738 Мбайт
Продолжительность : 1 ч. 29 м.
Общий поток : 1159 Кбит/сек
Программа кодирования : VirtualDubMod 1.5.10.2 (build 2542/release)
Библиотека кодирования : VirtualDubMod build 2542/release
Видео
Идентификатор : 0
Формат : MPEG-4 Visual
Профиль формата : Advanced Simple@L5
Параметр BVOP формата : 2
Параметр QPel формата : Нет
Параметр GMC формата : Без точки перехода
Параметр матрицы формата : Default (H.263)
Идентификатор кодека : XVID
Идентификатор кодека/Подсказка : XviD
Продолжительность : 1 ч. 29 м.
Битрейт : 957 Кбит/сек
Ширина : 640 пикселей
Высота : 368 пикселей
Соотношение сторон : 1,739
Частота кадров : 23,976 кадра/сек
Цветовое пространство : YUV
Субдискретизация насыщенности : 4:2:0
Битовая глубина : 8 бит
Тип развёртки : Прогрессивная
Метод сжатия : С потерями
Бит/(Пиксели*Кадры) : 0.170
Размер потока : 609 Мбайт (83%)
Библиотека кодирования : XviD 1.2.1 (UTC 2008-12-04)
Аудио
Идентификатор : 1
Формат : AC-3
Формат/Информация : Audio Coding 3
Расширение режима : CM (complete main)
Параметр Endianness формата : Big
Идентификатор кодека : 2000
Продолжительность : 1 ч. 29 м.
Вид битрейта : Постоянный
Битрейт : 192 Кбит/сек
Каналы : 2 канала
Расположение каналов : Front: L R
Частота : 48,0 КГц
Битовая глубина : 16 бит
Метод сжатия : С потерями
Размер потока : 122 Мбайт (17%)
Выравнивание : Разделение по промежуткам
Продолжительность промежутка : 42 мс. (1,00 видеокадр)
Время предзагрузки промежутка : 500 мс.

Скриншот c названием фильма

Скриншоты

Скачать

Скачать торрент!

Как скачивать? · Что такое торрент? · Рейтинг и ограничения

Сайт не распространяет и не хранит электронные версии произведений, а лишь предоставляет доступ к создаваемому пользователями каталогу ссылок на торрент-файлы, которые содержат только списки хеш-сумм

[Профиль] [ЛС]
Показать сообщения:    
Ответить на тему

Текущее время: Сегодня 14:14

Часовой пояс: GMT + 4



Вы не можете начинать темы
Вы не можете отвечать на сообщения
Вы не можете редактировать свои сообщения
Вы не можете удалять свои сообщения
Вы не можете голосовать в опросах
Вы не можете прикреплять файлы к сообщениям
Вы не можете скачивать файлы