Любовь и секс на Ибице / Verliefd op Ibiza (Йохан Нийенхейс / Johan Nijenhuis) [2013, Нидерланды, комедия, мелодрама, HDRip] MVO

Ответить на тему
 
Автор Сообщение

user ®

Стаж: 7 лет 7 месяцев

Сообщений: 20008

Пост Пост: #1 от 03-Янв-2014 14:10

[Цитировать]

Любовь и секс на Ибице / Verliefd op Ibiza
Страна: Нидерланды
Жанр: комедия, мелодрама
Год выпуска: 2013
Продолжительность: 01:56:42
Перевод: Профессиональный многоголосый
Cубтитры: нет
Режиссер: Йохан Нийенхейс / Johan Nijenhuis
В ролях: Виллеке ван Аммельрой, Йим Баккум, Рик Энгелкес, Ким Феенстра, Джаспер Готтлиб, Мариус Готтлиб, Кимберли Клавер, Симоне Клейнсма, Ян Коейман, Дэвид Люсиер
Описание: Футболист Кевин только что заключил выгодный контракт с мадридским Реалом. Он вряд ли понимает, что делать со свалившимся на него богатством, но его подруга Эльза знает, как Кевин должен тратить свои миллионы... Две 40-летних подруги Джеки и Ирма хотя и проводят отпуск вместе, но имеют разные представления об идеальном отдыхе: Джеки предпочитает тусоваться с молодыми горячими парнями, тогда как Ирме милее спокойный отдых на пляже с книгой... Братья Дилан и Бойд мечтают стать DJ-звездами мирового класса... Пути всех этих героев пересекаются на острове Ибица
Сэмпл: http://sendfile.su/917280
Качество видео: HDRip
Формат видео: AVI
Видео: 720x384 (1.88:1), 24.000 fps, XviD build 50, 1589 kbps avg, 0.24 bit/pixel
Аудио: 48 kHz, AC3 Dolby Digital, 2/0 (L,R) ch, 192 kbps

MediaInfo

Lubovj.i.seks.na.Ibice.2013.P.HDRip.avi
Format : AVI
Format/Info : Audio Video Interleave
File size : 1.46 GiB
Duration : 1h 56mn
Overall bit rate : 1 791 Kbps
Writing application : VirtualDubMod 1.5.10.2 (build 2540/release)
Writing library : VirtualDubMod build 2540/release
Video #0
ID : 0
Format : MPEG-4 Visual
Format profile : Advanced Simple@L5
Format settings, BVOP : 2
Format settings, QPel : No
Format settings, GMC : No warppoints
Format settings, Matrix : Default (MPEG)
Codec ID : XVID
Codec ID/Hint : XviD
Duration : 1h 56mn
Bit rate : 1 589 Kbps
Width : 720 pixels
Height : 384 pixels
Display aspect ratio : 1.875
Frame rate : 24.000 fps
Color space : YUV
Chroma subsampling : 4:2:0
Bit depth : 8 bits
Scan type : Progressive
Compression mode : Lossy
Bits/(Pixel*Frame) : 0.240
Stream size : 1.30 GiB (89%)
Writing library : XviD 1.2.1 (UTC 2008-12-04)
Audio #1
ID : 1
Format : AC-3
Format/Info : Audio Coding 3
Mode extension : CM (complete main)
Codec ID : 2000
Duration : 1h 56mn
Bit rate mode : Constant
Bit rate : 192 Kbps
Channel(s) : 2 channels
Channel positions : Front: L R
Sampling rate : 48.0 KHz
Bit depth : 16 bits
Compression mode : Lossy
Stream size : 160 MiB (11%)
Alignment : Split accross interleaves
Interleave, duration : 42 ms (1.00 video frame)
Interleave, preload duration : 500 ms

Скриншот c названием фильма

Скриншоты

Скачать

Скачать торрент!

Как скачивать? · Что такое торрент? · Рейтинг и ограничения

Сайт не распространяет и не хранит электронные версии произведений, а лишь предоставляет доступ к создаваемому пользователями каталогу ссылок на торрент-файлы, которые содержат только списки хеш-сумм

[Профиль] [ЛС]
Показать сообщения:    
Ответить на тему

Текущее время: Сегодня 21:52

Часовой пояс: GMT + 4



Вы не можете начинать темы
Вы не можете отвечать на сообщения
Вы не можете редактировать свои сообщения
Вы не можете удалять свои сообщения
Вы не можете голосовать в опросах
Вы не можете прикреплять файлы к сообщениям
Вы не можете скачивать файлы