Отец поневоле (Фуад Шабанов) [2012, Мелодрама, SATRip]

Ответить на тему
 
Автор Сообщение

user ®

Стаж: 7 лет 7 месяцев

Сообщений: 20008

Пост Пост: #1 от 02-Янв-2014 23:40

[Цитировать]

Отец поневоле
Жанр: Мелодрама
Год выпуска: 2012
Продолжительность: 01:30:43
Режиссёр: Фуад Шабанов
В ролях: Анна Попова, Игорь Ботвин, Виктория Стивина, Ольга Кирсанова-Миропольская, Валерий, Афанасьев
Описание: В России десять миллионов детей растут без отца. Кто-то – долгие годы таит обиду, а кто-то – больше всего на свете мечтает о встрече. По-разному ведут себя и матери брошенных детей. Одни пытаются добиться признания отцовства через суд. Другие, наоборот, стараются вычеркнуть из жизни отца своего ребенка. Большинство самих мужчин - не торопится признавать свое отцовство. Но и есть и такие, которые признают свои ошибки. И своих детей.
Как известно, сын за отца не отвечает. Должен ли отец отвечать за своих детей?
Александр Михайлов десять лет не разговаривал со своим сыном Константином. Тот обиделся на отца после того, как Александр развелся с его мамой – Верой Мусатовой. Этот развод в 2000 году обсуждала вся страна. Расставание супругов не произошло в одно мгновенье. В 1990-м году Александр Михайлов уже уходил из семьи. В это время у него завязался роман с актрисой Малого театра Ольгой Кузнецовой.
Сэмпл: http://sendfile.su/917151
Качество видео: SATRip
Формат видео: AVI
Видео: 720x400 (1.80:1), 25 fps, DivX Codec 6.8.5/6.9.1, 1850 kbps avg, 0.26 bit/pixel
Аудио: 48 kHz, MPEG Layer 3, 1 ch, 128.00 kbps avg

MediaInfo

Otec.ponevole.2013.DivX.SATRip.avi
General
Complete name : E:\Отец поневоле\Otec.ponevole.2013.DivX.SATRip.avi
Format : AVI
Format/Info : Audio Video Interleave
File size : 1.25 GiB
Duration : 1h 29mn
Overall bit rate : 1 989 Kbps
Writing library : Boilsoft AVI tool build 1/release
Video #0
ID : 0
Format : MPEG-4 Visual
Format settings, BVOP : 1
Format settings, QPel : No
Format settings, GMC : No warppoints
Format settings, Matrix : Default (H.263)
Muxing mode : Packed bitstream
Codec ID : DX50
Codec ID/Hint : DivX 5
Duration : 1h 29mn
Bit rate : 1 851 Kbps
Width : 720 pixels
Height : 400 pixels
Display aspect ratio : 16:9
Frame rate : 25.000 fps
Color space : YUV
Chroma subsampling : 4:2:0
Bit depth : 8 bits
Scan type : Progressive
Compression mode : Lossy
Bits/(Pixel*Frame) : 0.257
Stream size : 1.16 GiB (93%)
Writing library : DivX 6.8.5 (UTC 2009-08-20)
Audio #1
ID : 1
Format : MPEG Audio
Format version : Version 1
Format profile : Layer 3
Codec ID : 55
Codec ID/Hint : MP3
Duration : 1h 29mn
Bit rate mode : Constant
Bit rate : 128 Kbps
Channel(s) : 1 channel
Sampling rate : 48.0 KHz
Compression mode : Lossy
Stream size : 82.1 MiB (6%)
Alignment : Split accross interleaves
Interleave, duration : 40 ms (1.00 video frame)
Interleave, preload duration : 500 ms

Скриншот c названием фильма

Скриншоты

Скачать

Скачать торрент!

Как скачивать? · Что такое торрент? · Рейтинг и ограничения

Сайт не распространяет и не хранит электронные версии произведений, а лишь предоставляет доступ к создаваемому пользователями каталогу ссылок на торрент-файлы, которые содержат только списки хеш-сумм

[Профиль] [ЛС]
Показать сообщения:    
Ответить на тему

Текущее время: Сегодня 04:27

Часовой пояс: GMT + 4



Вы не можете начинать темы
Вы не можете отвечать на сообщения
Вы не можете редактировать свои сообщения
Вы не можете удалять свои сообщения
Вы не можете голосовать в опросах
Вы не можете прикреплять файлы к сообщениям
Вы не можете скачивать файлы