Гонин / Gonin (Такаси Исии / Takashi Ishii) [1995, Япония, боевик, драма, криминал, DVDRip] [Режиссерская версия / Extended Director\'s Cut] DVO (Premier Digital) + Sub Rus

Ответить на тему
 
Автор Сообщение

user ®

Стаж: 11 лет

Сообщений: 15151

Пост Пост: #1 от 02-Янв-2014 20:30

[Цитировать]

Гонин / Gonin / Режиссерская версия / Extended Director's Cut
Страна: Япония
Жанр: боевик, драма, криминал
Год выпуска: 1995
Продолжительность: 02:01:01
-
Перевод: Профессиональный (двухголосый закадровый) Premier Digital
Cубтитры: русские (на места без перевода)
-
Режиссер: Такаси Исии / Takashi Ishii
В ролях: Колчи Сато, Масахиро Мотоки, Наото Такинаки, Такеши Китано, Тосиюки Нагасима
-
Описание: Герои этой картины переступили ту черту, за которой уже нечего терять. И каждому из них позарез нужны деньги: Задолжавший бандитам владелец дискотеки; безработный конторский служащий; манерный вымогатель; сутенер-неврастеник и бывший полицейский… Однажды эти пять отчаянных мужчин решили ограбить гангстеров. И не просто гангстеров, а банду Огоши — одну из самых влиятельных семей якудзы в Осаке. В день налета им улыбнулась удача — дерзкий план сработал. К вечеру в руках грабителей — дилетантов уже была с кровью отвоеванная сумка с десятками миллионов йен. Но на этом подарки судьбы закончились: семья Огоши нанимает двух самых ужасных убийц в городе, от страшной мести которых еще никто и никогда не уходил.
-
Разница между версиями
-
Качество видео: DVDRip (DVD9)
Формат видео: AVI
Видео: 704x384 (1.83:1), 23.976 fps, XviD build 73 ~1525 kbps avg, 0.23 bit/pixel
Аудио: 48 kHz, AC3 Dolby Digital, 2/0 (L,R) ch, ~192 kbps
Формат субтитров: softsub (SRT)

MediaInfo

General
Complete name : D:\Релизы\Gonin.Extended Director's Cut.1995.RUS.DVDRip.XviD.AC3\Gonin.Extended Director's Cut.1995.RUS.DVDRip.XviD.AC3.avi
Format : AVI
Format/Info : Audio Video Interleave
File size : 1.46 GiB
Duration : 2h 1mn
Overall bit rate : 1 727 Kbps
Writing application : VirtualDubMod 1.5.10.2 (build 2540/release)
Writing library : VirtualDubMod build 2540/release
Video
ID : 0
Format : MPEG-4 Visual
Format profile : Advanced Simple@L5
Format settings, BVOP : 1
Format settings, QPel : No
Format settings, GMC : No warppoints
Format settings, Matrix : Custom
Codec ID : XVID
Codec ID/Hint : XviD
Duration : 2h 1mn
Bit rate : 1 526 Kbps
Width : 704 pixels
Height : 384 pixels
Display aspect ratio : 1.85:1
Frame rate : 23.976 fps
Color space : YUV
Chroma subsampling : 4:2:0
Bit depth : 8 bits
Scan type : Progressive
Compression mode : Lossy
Bits/(Pixel*Frame) : 0.235
Stream size : 1.29 GiB (88%)
Writing library : XviD 73
Audio
ID : 1
Format : AC-3
Format/Info : Audio Coding 3
Mode extension : CM (complete main)
Format settings, Endianness : Big
Codec ID : 2000
Duration : 2h 1mn
Bit rate mode : Constant
Bit rate : 192 Kbps
Channel(s) : 2 channels
Channel positions : Front: L R
Sampling rate : 48.0 KHz
Bit depth : 16 bits
Compression mode : Lossy
Stream size : 166 MiB (11%)
Alignment : Split accross interleaves
Interleave, duration : 42 ms (1.00 video frame)
Interleave, preload duration : 500 ms

Скриншоты

Скачать

Скачать торрент! Гонин / Gonin (Такаси Исии / Takashi Ishii) [1995, Япония, боевик, драма, криминал, DVDRip] [Режиссерская версия / Extended Director\'s Cut] DVO (Premier Digital) + Sub Rus

Как скачивать? · Что такое торрент? · Рейтинг и ограничения

Сайт не распространяет и не хранит электронные версии произведений, а лишь предоставляет доступ к создаваемому пользователями каталогу ссылок на торрент-файлы, которые содержат только списки хеш-сумм

[Профиль] [ЛС]
Показать сообщения:    
Ответить на тему

Текущее время: Сегодня 20:09

Часовой пояс: GMT + 4



Вы не можете начинать темы
Вы не можете отвечать на сообщения
Вы не можете редактировать свои сообщения
Вы не можете удалять свои сообщения
Вы не можете голосовать в опросах
Вы не можете прикреплять файлы к сообщениям
Вы не можете скачивать файлы