Удача напрокат (Дмитрий Сорокин) [2012, Мелодрама, комедия, WEB-DLRip, AVC]

Ответить на тему
 
Автор Сообщение

user ®

Стаж: 7 лет 7 месяцев

Сообщений: 20008

Пост Пост: #1 от 02-Янв-2014 20:30

[Цитировать]

Удача напрокат
Жанр: Мелодрама, комедия
Год выпуска: 2012
Продолжительность: 01:29:27
Режиссёр: Дмитрий Сорокин
В ролях: Ирина Медведева, Дмитрий Богданов, Ирина Пулина, Юрий Ваксман, Максим Пинскер, Константин Третьяков, Оксана Скакун, Михаил Панюков, Денис Харитонов, Зинаида Матросова, Константин Новиков (II), Сергей Василюк, Инга Илюшина, Борис Эстрин, Елена Корнилова, Александр Новик, Эдуард Оруджян, Василий Савинов, Валентина Яковлева
Описание: В жизни Кристины все прекрасно: жених - красавец, богатый наследник Николай, отличная работа в крупной компании. Через пару месяцев Кристине исполнится тридцать. Кристина ждет дня рождения с особым трепетом: когда-то старая гадалка сказала ей, что если она встретит свое 30-летие успешной, то и дальше ей будет сопутствовать удача, а если нет, то ходить Кристине одинокой и бедной до конца своих дней. На память гадалка дала девушке медальон, который должен был охранять ее от невзгод. Но по роковому стечению обстоятельств коллега Кристины, неудачник Сергей, разбивает ее счастливый медальон. И сказочная жизнь Кристины превращается в ад: она заваливает проект и застает жениха с другой женщиной. Кристине предстоит пройти через массу неприятностей, чтобы понять, что главное в жизни не мистические предсказания и волшебные амулеты, а близкие люди, которые ее окружают.
Сэмпл: http://sendfile.su/917083
Качество видео: WEB-DLRip
Формат видео: MKV
Видео: MPEG-4 AVC, 2123 Кбит/с, 1024x576
Аудио: АС3, 2 ch, 192 Кбит/с

MediaInfo

Udacha.naprokat.2012.WEB-DLRip.(AVC).mkv
Format : Matroska
Format version : Version 4 / Version 2
File size : 1.45 GiB
Duration : 1h 29mn
Overall bit rate : 2 315 Kbps
Encoded date : UTC 2013-12-31 16:12:28
Writing application : mkvmerge v6.1.0 ('Old Devil') built on Mar 2 2013 14:32:37
Writing library : libebml v1.3.0 + libmatroska v1.4.0
Video #1
ID : 1
Format : AVC
Format/Info : Advanced Video Codec
Format profile : High@L5.1
Format settings, CABAC : Yes
Format settings, ReFrames : 5 frames
Codec ID : V_MPEG4/ISO/AVC
Duration : 1h 29mn
Bit rate : 2 123 Kbps
Width : 1 024 pixels
Height : 576 pixels
Display aspect ratio : 16:9
Frame rate : 25.000 fps
Color space : YUV
Chroma subsampling : 4:2:0
Bit depth : 8 bits
Scan type : Progressive
Bits/(Pixel*Frame) : 0.144
Stream size : 1.30 GiB (90%)
Writing library : x264 core 140 r2377 1ca7bb9
Encoding settings : cabac=1 / ref=5 / deblock=1:-3:-3 / analyse=0x3:0x133 / me=umh / subme=7 / psy=1 / psy_rd=1.00:0.00 / mixed_ref=1 / me_range=32 / chroma_me=1 / trellis=2 / 8x8dct=1 / cqm=0 / deadzone=21,11 / fast_pskip=1 / chroma_qp_offset=-2 / threads=4 / lookahead_threads=1 / sliced_threads=0 / nr=0 / decimate=1 / interlaced=0 / bluray_compat=0 / constrained_intra=0 / bframes=5 / b_pyramid=2 / b_adapt=2 / b_bias=0 / direct=3 / weightb=1 / open_gop=0 / weightp=2 / keyint=250 / keyint_min=25 / scenecut=40 / intra_refresh=0 / rc_lookahead=40 / rc=2pass / mbtree=1 / bitrate=2123 / ratetol=1.0 / qcomp=0.60 / qpmin=10 / qpmax=51 / qpstep=4 / cplxblur=20.0 / qblur=0.5 / ip_ratio=1.40 / aq=1:1.00
Audio #2
ID : 2
Format : AC-3
Format/Info : Audio Coding 3
Mode extension : CM (complete main)
Codec ID : A_AC3
Duration : 1h 29mn
Bit rate mode : Constant
Bit rate : 192 Kbps
Channel(s) : 2 channels
Channel positions : Front: L R
Sampling rate : 48.0 KHz
Bit depth : 16 bits
Compression mode : Lossy
Stream size : 123 MiB (8%)

Скриншот c названием фильма

Скриншоты

Скачать

Скачать торрент!

Как скачивать? · Что такое торрент? · Рейтинг и ограничения

Сайт не распространяет и не хранит электронные версии произведений, а лишь предоставляет доступ к создаваемому пользователями каталогу ссылок на торрент-файлы, которые содержат только списки хеш-сумм

[Профиль] [ЛС]
Показать сообщения:    
Ответить на тему

Текущее время: Сегодня 12:38

Часовой пояс: GMT + 4



Вы не можете начинать темы
Вы не можете отвечать на сообщения
Вы не можете редактировать свои сообщения
Вы не можете удалять свои сообщения
Вы не можете голосовать в опросах
Вы не можете прикреплять файлы к сообщениям
Вы не можете скачивать файлы