Суженый-ряженый (Дмитрий Иосифов) [2007, комедия, мелодрама, DVDRip-AVC]

Ответить на тему
 
Автор Сообщение

user ®

Стаж: 7 лет 7 месяцев

Сообщений: 20008

Пост Пост: #1 от 02-Янв-2014 12:45

[Цитировать]

Суженый-ряженый Жанр: комедия, мелодрама
Год выпуска: 2007
Продолжительность: 01:30:50
Режиссёр: Дмитрий Иосифов
В ролях: Мария Порошина, Алексей Макаров, Инга Оболдина, Карэн Бадалов, Сергей Астахов, Ксения Раппопорт, Александр Феклистов, Сергей Мигицко, Михаил Евланов, Юрий Ицков, Сергей Бызгу, Сергей Козик, Вера Карпова, Галина Сабурова, Ольга Калмыкова, Татьяна Жукова-Киртбая, Максим Бритвенков, Сергей Николаев, Альберт Афонин
Описание: Когда-то Ольге нагадали, что своего суженого она встретит под Новый год. Разочаровавшись в романе с Эдиком, который появился на пороге ее дома в новогоднюю ночь, она больше никому не верит, решительно меняет все в своей жизни - стиль, работу, квартиру. Пока Ольга избавляется от неприятных воспоминаний прошлого, ангелы не остаются без дела, они вершат судьбы своих подопечных. В очередной предновогодний вечер у Ольги на пороге появляется незваный и довольно настырный гость с далекого Севера. С этого момента (не без помощи ангелов) Новый год для Ольги и других героев фильма превращается в череду невероятных событий...

Автор: nnlabetik

Семпл
Качество видео: DVDRip-AVC
Формат видео: MKV
Видео: 720х554@1024x554 (1.85:1), 25 fps, MPEG-4 AVC, ~1850 kbps avg, 0.185 bit/pixel
Аудио: 48 kHz, AC3 Dolby Digital, 3/2 (L,C,R,l,r) + LFE ch, ~448.00 kbps avg

x264|MediaInfo

x264 [info]


Crop(0, 11, -0, -11)
x264 [info]: frame I:1034 Avg QP:18.44 size: 48059
x264 [info]: frame P:30041 Avg QP:21.16 size: 19199
x264 [info]: frame B:105186 Avg QP:24.01 size: 6022
x264 [info]: consecutive B-frames: 2.2% 3.2% 15.2% 7.1% 4.6% 66.6% 0.3% 0.1% 0.1% 0.0% 0.0% 0.4%
x264 [info]: mb I I16..4: 1.8% 89.1% 9.0%
x264 [info]: mb P I16..4: 0.4% 10.1% 1.0% P16..4: 39.5% 29.5% 15.1% 0.0% 0.0% skip: 4.4%
x264 [info]: mb B I16..4: 0.0% 0.5% 0.1% B16..8: 39.1% 13.2% 3.6% direct: 5.2% skip:38.1% L0:33.5% L1:44.9% BI:21.6%
x264 [info]: 8x8 transform intra:88.0% :71.5%
x264 [info]: direct mvs spatial:96.7% temporal:3.3%
x264 [info]: coded y,uvDC,uvAC intra: 91.7% 86.8% 54.1% : 28.4% 19.9% 1.3%
x264 [info]: i16 v,h,dc,p: 50% 10% 5% 34%
x264 [info]: i8 v,h,dc,ddl,ddr,vr,hd,vl,hu: 19% 7% 5% 9% 12% 16% 10% 14% 9%
x264 [info]: i4 v,h,dc,ddl,ddr,vr,hd,vl,hu: 19% 5% 2% 9% 14% 18% 11% 13% 9%
x264 [info]: i8c dc,h,v,p: 31% 18% 31% 20%
x264 [info]: Weighted P-Frames: Y:1.8% UV:0.7%
x264 [info]: ref P L0: 46.9% 15.4% 19.1% 4.9% 5.0% 3.0% 3.3% 1.9% 0.5% 0.0%
x264 [info]: ref B L0: 80.9% 11.1% 3.6% 1.9% 1.3% 0.8% 0.4%
x264 [info]: ref B L1: 95.4% 4.6%
x264 [info]: kb/s:1849.20
Общее
Уникальный идентификатор : 239235756679764769582879607342589298825 (0xB3FB217935CAE785997DBAA2DCD44889)
Полное имя : E:\Suzhenyj ryazhenyj\Suzhenyj.ryazhenyj_2007.x264(AVC).mkv
Формат : Matroska
Версия формата : Version 4 / Version 2
Размер файла : 1,46 Гбайт
Продолжительность : 1 ч. 30 м.
Общий поток : 2299 Кбит/сек
Название фильма : Суженый-ряженый / 2007 -=NN@LIFE=-
Дата кодирования : UTC 2014-01-02 04:00:54
Программа кодирования : mkvmerge v6.6.0 ('The Edge Of The In Between') built on Dec 1 2013 17:55:00
Библиотека кодирования : libebml v1.3.0 + libmatroska v1.4.1
Видео
Идентификатор : 1
Формат : AVC
Формат/Информация : Advanced Video Codec
Профиль формата : High@L4.1
Параметр CABAC формата : Да
Параметр ReFrames формата : 8 кадров
Идентификатор кодека : V_MPEG4/ISO/AVC
Продолжительность : 1 ч. 30 м.
Битрейт : 1849 Кбит/сек
Ширина : 720 пикселей
Высота : 554 пикселя
Соотношение сторон : 1,422
Режим частоты кадров : Постоянный
Частота кадров : 25,000 кадров/сек
Цветовое пространство : YUV
Субдискретизация насыщенности : 4:2:0
Битовая глубина : 8 бит
Тип развёртки : Прогрессивная
Бит/(Пиксели*Кадры) : 0.185
Размер потока : 1,15 Гбайт (79%)
Заголовок : Rip by nnlabetik
Библиотека кодирования : x264 core 138 r2358 9e941d1
Настройки программы : cabac=1 / ref=8 / deblock=1:-2:-1 / analyse=0x3:0x113 / me=umh / subme=10 / psy=1 / psy_rd=1.00:0.00 / mixed_ref=1 / me_range=32 / chroma_me=1 / trellis=2 / 8x8dct=1 / cqm=1 / deadzone=21,11 / fast_pskip=1 / chroma_qp_offset=-2 / threads=6 / lookahead_threads=1 / sliced_threads=0 / nr=0 / decimate=1 / interlaced=0 / bluray_compat=0 / constrained_intra=0 / bframes=11 / b_pyramid=2 / b_adapt=2 / b_bias=0 / direct=3 / weightb=1 / open_gop=0 / weightp=2 / keyint=250 / keyint_min=25 / scenecut=40 / intra_refresh=0 / rc_lookahead=50 / rc=2pass / mbtree=0 / bitrate=1849 / ratetol=1.0 / qcomp=0.70 / qpmin=3 / qpmax=69 / qpstep=4 / cplxblur=20.0 / qblur=0.5 / vbv_maxrate=62500 / vbv_bufsize=78125 / nal_hrd=none / ip_ratio=1.40 / pb_ratio=1.30 / aq=1:1.00
Язык : Russian
Default : Да
Forced : Нет
Аудио
Идентификатор : 2
Формат : AC-3
Формат/Информация : Audio Coding 3
Расширение режима : CM (complete main)
Параметр Endianness формата : Big
Идентификатор кодека : A_AC3
Продолжительность : 1 ч. 30 м.
Вид битрейта : Постоянный
Битрейт : 448 Кбит/сек
Каналы : 6 каналов
Расположение каналов : Front: L C R, Side: L R, LFE
Частота : 48,0 КГц
Битовая глубина : 16 бит
Метод сжатия : С потерями
Размер потока : 291 Мбайт (19%)
Язык : Russian
Default : Да
Forced : Нет
Меню
00:00:00.000 : en:Chapter 01
00:07:33.000 : en:Chapter 02
00:16:16.200 : en:Chapter 03
00:23:50.400 : en:Chapter 04
00:37:05.400 : en:Chapter 05
00:45:47.400 : en:Chapter 06
00:55:48.000 : en:Chapter 07
01:04:15.000 : en:Chapter 08
01:19:09.000 : en:Chapter 09
01:24:46.200 : en:Chapter 10

Скриншоты

Скачать

Скачать торрент!

Как скачивать? · Что такое торрент? · Рейтинг и ограничения

Сайт не распространяет и не хранит электронные версии произведений, а лишь предоставляет доступ к создаваемому пользователями каталогу ссылок на торрент-файлы, которые содержат только списки хеш-сумм

[Профиль] [ЛС]
Показать сообщения:    
Ответить на тему

Текущее время: Сегодня 23:41

Часовой пояс: GMT + 4



Вы не можете начинать темы
Вы не можете отвечать на сообщения
Вы не можете редактировать свои сообщения
Вы не можете удалять свои сообщения
Вы не можете голосовать в опросах
Вы не можете прикреплять файлы к сообщениям
Вы не можете скачивать файлы