Взорванное солнце / Exploding Sun (Майкл Робисан / Michael Robison) [2013, Канада, Фантастика, HDRip] AVO

Ответить на тему
 
Автор Сообщение

user ®

Стаж: 7 лет 7 месяцев

Сообщений: 20008

Пост Пост: #1 от 02-Янв-2014 12:45

[Цитировать]

Взорванное солнце / Exploding Sun
Страна: Канада
Жанр: Фантастика
Год выпуска: 2013
Продолжительность: 02:53:18
Перевод: Авторский (одноголосый закадровый)
Cубтитры: нет
Режиссер: Майкл Робисан / Michael Robison
В ролях: Джулия Ормонд и другие: Дэвид Джеймс Эллиотт, Энтони Лемке, Натали Браун,
Милен Робик, Джон МакЛарен, Фрэнк Скорпион,
Кэтерин Клилэнд, Роберт Крукс, Кайла Ди Венере.
Описание: Первый в мире коммерческий космический челнок с пассажирами, среди которых находится жена президента, совершает свой первый полет вокруг Луны с возвращением на Землю. Но в результате мощной вспышки на Солнце экипаж корабля теряет контроль над управлением.И начинается неуправляемое движение -курс на Солнце. Опасность становится катастрофической, когда обнаруживается, что событие запуска вызовет большую солнечную бурю, которая может отправить Землю обратно в каменный век - если это вовремя не остановить
Сэмпл: http://multi-up.com/936217
Качество видео: HDRip
Формат видео: AVI
Видео: 640x352 (1.82:1), XviD MPEG-4, 988 Kbps 24.00fps
Аудио: MPEG Audio Layer 3, 48000Hz, stereo, 128kbps

MediaInfo

Exploding.Sun.2013.HDRip.avi
Format : AVI
Format/Info : Audio Video Interleave
File size : 1.36 GiB
Duration : 2h 53mn
Overall bit rate : 1 125 Kbps
Writing application : VirtualDubMod 1.5.10.2 (build 2540/release)
Writing library : VirtualDubMod build 2540/release
Video #0
ID : 0
Format : MPEG-4 Visual
Format profile : Advanced Simple@L5
Format settings, BVOP : 2
Format settings, QPel : No
Format settings, GMC : No warppoints
Format settings, Matrix : Default (H.263)
Muxing mode : Packed bitstream
Codec ID : XVID
Codec ID/Hint : XviD
Duration : 2h 53mn
Bit rate : 988 Kbps
Width : 640 pixels
Height : 352 pixels
Display aspect ratio : 16:9
Frame rate : 24.000 fps
Color space : YUV
Chroma subsampling : 4:2:0
Bit depth : 8 bits
Scan type : Progressive
Compression mode : Lossy
Bits/(Pixel*Frame) : 0.183
Stream size : 1.20 GiB (88%)
Writing library : XviD 64
Audio #1
ID : 1
Format : MPEG Audio
Format version : Version 1
Format profile : Layer 3
Mode : Joint stereo
Mode extension : MS Stereo
Codec ID : 55
Codec ID/Hint : MP3
Duration : 2h 53mn
Bit rate mode : Constant
Bit rate : 128 Kbps
Channel(s) : 2 channels
Sampling rate : 48.0 KHz
Compression mode : Lossy
Stream size : 159 MiB (11%)
Alignment : Aligned on interleaves
Interleave, duration : 42 ms (1.00 video frame)
Interleave, preload duration : 504 ms

Скриншот c названием фильма

Скриншоты

Скачать

Скачать торрент!

Как скачивать? · Что такое торрент? · Рейтинг и ограничения

Сайт не распространяет и не хранит электронные версии произведений, а лишь предоставляет доступ к создаваемому пользователями каталогу ссылок на торрент-файлы, которые содержат только списки хеш-сумм

[Профиль] [ЛС]
Показать сообщения:    
Ответить на тему

Текущее время: Сегодня 18:34

Часовой пояс: GMT + 4



Вы не можете начинать темы
Вы не можете отвечать на сообщения
Вы не можете редактировать свои сообщения
Вы не можете удалять свои сообщения
Вы не можете голосовать в опросах
Вы не можете прикреплять файлы к сообщениям
Вы не можете скачивать файлы